TORRENTS43.COM

Скачать Собачья жизнь / A Dog's Purpose (2017) BDRip [H.264]


Собачья жизнь / A Dog's Purpose (2017) BDRip
Производство: США
Жанр: Фэнтези, драма, комедия, приключения, семейный

Режиссер: Лассе Халльстрём
Актеры: Джош Гэд, Дэннис Куэйд, Пегги Липтон, Кей Джей Апа, Брайс Гейзар, Джульет Райлэнс, Люк Кирби, Габриель Роз, Майкл Бофшевер, Бритт Робертсон

Описание:
Собаки бывают разных пород, мастей и размеров. Они — наши самые верные и преданные друзья, а мы учим их хорошим манерам. Собаки всегда думают о нас, правда, иногда и о беконе. Все они каждый день провожают и встречают нас у порога в уверенности, что пока им есть, кого облизывать и любить, в их жизни есть смысл.


Возраст: 6+ (зрителям, достигшим 6 лет)
Рейтинг MPAA: PG (рекомендуется присутствие родителей)
Дата мировой премьеры: 19 января 2017
Дата российской премьеры: 30 марта 2017

Продолжительность: 01:40:02
Качество видео: BDRip (AVC)
Перевод: Дублированный (iTunes)
Субтитры: Английские

Видео: AVC, 1024x428 (2.35:1), 23.976 fps, 2 100 Kbps (0.200 bit/pixel)
Аудио #1: AC-3, 48.0 KHz, 6 ch, 384 Kbps, CBR | Русский
Аудио #2: AC-3, 48.0 KHz, 6 ch, 448 Kbps, CBR | Английский

MediaInfo:


Общее
Уникальный идентификатор : 237006563252619488190021065898123463995 (0xB24DCDC07E15AFFCA87F0E98A6BE0D3B)
Полное имя : C:\NNM\Собачья жизнь\Sobachjya zhiznj 2017 BDRip-AVC.mkv
Формат : Matroska
Версия формата : Version 2
Размер файла : 2,05 Гбайт
Продолжительность : 1 ч. 40 м.
Общий поток : 2933 Кбит/сек
Программа кодирования : mkvmerge v7.8.0 ('River Man') 32bit built on Apr 3 2015 12:11:22
Библиотека кодирования : libebml v1.3.1 + libmatroska v1.4.2

Видео
Идентификатор : 1
Формат : AVC
Формат/Информация : Advanced Video Codec
Профиль формата : High@L4.1
Параметр CABAC формата : Да
Параметр ReFrames формата : 10 кадров
Идентификатор кодека : V_MPEG4/ISO/AVC
Продолжительность : 1 ч. 40 м.
Битрейт : 2100 Кбит/сек
Ширина : 1024 пикселя
Высота : 428 пикселей
Соотношение сторон : 2,40:1
Режим частоты кадров : Постоянный
Частота кадров : 23,976 (24000/1001) кадра/сек
Цветовое пространство : YUV
Субдискретизация насыщенности : 4:2:0
Битовая глубина : 8 бит
Тип развёртки : Прогрессивная
Бит/(Пиксели*Кадры) : 0.200
Размер потока : 1,43 Гбайт (70%)
Библиотека кодирования : x264 core 146 r2538 121396c
Настройки программы : cabac=1 / ref=10 / deblock=1:-3:-3 / analyse=0x3:0x133 / me=umh / subme=11 / psy=1 / psy_rd=1.00:0.07 / mixed_ref=1 / me_range=48 / chroma_me=1 / trellis=2 / 8x8dct=1 / cqm=0 / deadzone=21,11 / fast_pskip=0 / chroma_qp_offset=-3 / threads=6 / lookahead_threads=1 / sliced_threads=0 / nr=0 / decimate=0 / interlaced=0 / bluray_compat=0 / constrained_intra=0 / bframes=10 / b_pyramid=2 / b_adapt=2 / b_bias=0 / direct=3 / weightb=1 / open_gop=0 / weightp=2 / keyint=240 / keyint_min=23 / scenecut=40 / intra_refresh=0 / rc_lookahead=40 / rc=2pass / mbtree=0 / bitrate=2100 / ratetol=1.0 / qcomp=0.60 / qpmin=0 / qpmax=69 / qpstep=4 / cplxblur=20.0 / qblur=0.5 / vbv_maxrate=50000 / vbv_bufsize=62500 / nal_hrd=none / filler=0 / ip_ratio=1.40 / pb_ratio=1.30 / aq=1:1.00
Язык : English
Default : Да
Forced : Нет

Аудио #1
Идентификатор : 2
Формат : AC-3
Формат/Информация : Audio Coding 3
Расширение режима : CM (complete main)
Параметр Endianness формата : Big
Идентификатор кодека : A_AC3
Продолжительность : 1 ч. 40 м.
Вид битрейта : Постоянный
Битрейт : 384 Кбит/сек
Каналы : 6 каналов
Расположение каналов : Front: L C R, Side: L R, LFE
Частота : 48,0 КГц
Частота кадров : 31,250 кадров/сек (1536 spf)
Битовая глубина : 16 бит
Метод сжатия : С потерями
Размер потока : 275 Мбайт (13%)
Заголовок : iTunes
Язык : Russian
Default : Да
Forced : Нет

Аудио #2
Идентификатор : 3
Формат : AC-3
Формат/Информация : Audio Coding 3
Расширение режима : CM (complete main)
Параметр Endianness формата : Big
Идентификатор кодека : A_AC3
Продолжительность : 1 ч. 40 м.
Вид битрейта : Постоянный
Битрейт : 448 Кбит/сек
Каналы : 6 каналов
Расположение каналов : Front: L C R, Side: L R, LFE
Частота : 48,0 КГц
Частота кадров : 31,250 кадров/сек (1536 spf)
Битовая глубина : 16 бит
Метод сжатия : С потерями
Размер потока : 321 Мбайт (15%)
Заголовок : Original
Язык : English
Default : Нет
Forced : Нет

Текст
Идентификатор : 4
Формат : UTF-8
Идентификатор кодека : S_TEXT/UTF8
Идентификатор кодека/Информация : UTF-8 Plain Text
Заголовок : SDH
Язык : English
Default : Нет
Forced : Нет

Меню
00:00:00.000 : en:Chapter 01
00:04:39.779 : en:Chapter 02
00:08:54.408 : en:Chapter 03
00:14:10.307 : en:Chapter 04
00:17:46.482 : en:Chapter 05
00:22:38.607 : en:Chapter 06
00:28:33.002 : en:Chapter 07
00:33:45.481 : en:Chapter 08
00:37:26.702 : en:Chapter 09
00:42:16.116 : en:Chapter 10
00:48:31.533 : en:Chapter 11
00:51:24.247 : en:Chapter 12
00:56:04.736 : en:Chapter 13
01:01:12.669 : en:Chapter 14
01:05:40.311 : en:Chapter 15
01:12:03.068 : en:Chapter 16
01:16:24.496 : en:Chapter 17
01:21:07.988 : en:Chapter 18
01:27:57.939 : en:Chapter 19
01:33:40.615 : en:Chapter 20
Скриншоты:
Все релизы фильма «Собачья жизнь» на Torrents43.com

Смотреть Online

http://moonwalk.cc/video/a59b313eabe2ca57/iframe
Детали торрента:
Название:Собачья жизнь / A Dog's Purpose (2017) BDRip [H.264]
Дата добавления:24 Май 2017 23:39:44
Размер:2,05 GB
Раздают:20
Качают:0
Форум:Зарубежные Фильмы (HD*Rip/LQ, DVDRip, SATRip, VHSRip)

All rights reserved © 2015-2018