TORRENTS43.COM

Скачать Muse - Muscle Museum (1999) Remastered 2016 [FLAC|Lossless|WEB-DL|tracks + .cue] <Alternative Rock>


Muse - Muscle Museum (1999) Reissue 2016
Жанр: Alternative Rock
Издание: Warner Bros. Records
Источник: qobuz
Продолжительность: 00:21:01

Кодек: FLAC
Битрейт: Lossless|WEB-DL
Тип рипа: tracks + .cue

Треклист:

01. Muscle Museum (4:23)
02. Muscle Museum (Live Acoustic Version Kcrw - 8/3/99) (4:45)
03. Do We Need This? (4:17)
04. Con-Science (4:52)
05. Minimum (2:45)

DRM log:


foobar2000 1.3.14 / Dynamic Range Meter 1.1.1
log date: 2017-05-25 13:05:31

--------------------------------------------------------------------------------
Analyzed: Muse / Muscle Museum
--------------------------------------------------------------------------------

DR Peak RMS Duration Track
--------------------------------------------------------------------------------
DR7 -0.07 dB -8.88 dB 4:23 01-Muscle Museum
DR10 -0.60 dB -13.80 dB 4:45 02-Muscle Museum (Live Acoustic Version Kcrw - 8/3/99)
DR7 -0.50 dB -9.94 dB 4:17 03-Do We Need This?
DR7 -0.50 dB -13.39 dB 4:52 04-Con-Science
DR7 -0.60 dB -9.27 dB 2:45 05-Minimum
--------------------------------------------------------------------------------

Number of tracks: 5
Official DR value: DR7

Samplerate: 44100 Hz
Channels: 2
Bits per sample: 16
Bitrate: 965 kbps
Codec: FLAC
================================================================================

Cue Sheet (.cue):


REM GENRE Rock
REM DATE 2016
REM COMMENT "CUE Corrector v. 7.6.3 / b. 598 (May 12, 2016)"
REM DISCNUMBER 1
PERFORMER Muse
TITLE "Muscle Museum"
FILE "01 - Muscle Museum.flac" WAVE
TRACK 1 AUDIO
TITLE "Muscle Museum"
PERFORMER Muse
INDEX 01 00:00:00
FILE "02 - Muscle Museum (Live Acoustic Version Kcrw - 8-3-99).flac" WAVE
TRACK 2 AUDIO
TITLE "Muscle Museum (Live Acoustic Version Kcrw - 8/3/99)"
PERFORMER Muse
INDEX 01 00:00:00
FILE "03 - Do We Need This.flac" WAVE
TRACK 3 AUDIO
TITLE "Do We Need This?"
PERFORMER Muse
INDEX 01 00:00:00
FILE "04 - Con-Science.flac" WAVE
TRACK 4 AUDIO
TITLE Con-Science
PERFORMER Muse
INDEX 01 00:00:00
FILE "05 - Minimum.flac" WAVE
TRACK 5 AUDIO
TITLE Minimum
PERFORMER Muse
INDEX 01 00:00:00

Отчёт auCDtect Task manager:


-----------------------

DON'T MODIFY THIS FILE

-----------------------

PERFORMER: auCDtect Task Manager, ver. 1.6.0 RC1 build 1.6.0.1
Copyright (c) 2008-2010 y-soft. All rights reserved
http://y-soft.org

ANALYZER: auCDtect: CD records authenticity detector, version 0.8.2
Copyright (c) 2004 Oleg Berngardt. All rights reserved.
Copyright (c) 2004 Alexander Djourik. All rights reserved.

FILE: 05 - Minimum.flac
Size: 20134496 Hash: D8705B8A0F2681836A764A123754F133 Accuracy: -m0
Conclusion: CDDA 100%
Signature: 8D462EF9284340A138066B58E837101CD15B8359
FILE: 04 - Con-Science.flac
Size: 28466435 Hash: 829D5E208EFF935560731A5A54A759DA Accuracy: -m0
Conclusion: CDDA 100%
Signature: 9785E19FF8E832EC13E1A3D165E5A8EC14909233
FILE: 03 - Do We Need This.flac
Size: 32419012 Hash: E7B85178C19287435C8F423E197909E3 Accuracy: -m0
Conclusion: CDDA 100%
Signature: C5A33C65D0FC5155F0E1EF67D67B7C31608B2802
FILE: 02 - Muscle Museum (Live Acoustic Version Kcrw - 8-3-99).flac
Size: 33839066 Hash: A6BBAAA58E329A2935BDEE21A5DD089B Accuracy: -m0
Conclusion: CDDA 100%
Signature: 30DDB432B6D07A2329B86C797E5498B83E118E1D
FILE: 01 - Muscle Museum.flac
Size: 34586292 Hash: B71F1AF1C0195C8A64A3354570364E04 Accuracy: -m0
Conclusion: CDDA 100%
Signature: C2D487A9ADF6BCBB20FF84FC2D1597326CF4FF0F
YouTube

Смотреть Online

http://coolstory.cc/video/b4a849756a303d38/iframe
Детали торрента:
Название:Muse - Muscle Museum (1999) Remastered 2016 [FLAC|Lossless|WEB-DL|tracks + .cue] <Alternative Rock>
Дата добавления:25 Май 2017 11:14:13
Размер:143 MB
Раздают:2
Качают:0
Форум:Alternative, Punk (Lossless)

All rights reserved © 2015-2018