TORRENTS43.COM

Скачать Т2 Трейнспоттинг (На игле 2) / T2 Trainspotting (2017) BDRip [H.264/720p]


Т2 Трейнспоттинг (На игле 2) / T2 Trainspotting (2017) BDRip [H.264/720p]
Производство: Великобритания, Cloud Eight Films, Creative Scotland, Decibel Films
Жанр: Драма

Режиссер: Дэнни Бойл
Актеры: Эван МакГрегор, Юэн Бремнер, Джонни Ли Миллер, Роберт Карлайл, Кевин МакКидд, Кайл Фицпатрик, Келли Макдоналд, Анжела Недялкова, Полин Линч, Джеймс Космо

Описание:
Прошло двадцать лет. Рентон возвращается в единственное место, которое может считать своим домом. Они все ждут его: Кочерыжка, Кайфолом и Бегби. А вместе с ними другие старые знакомые: месть и страх, ненависть и любовь, дружба, сожаление и надежда. Все они выстроились в шеренгу, приветствуя Рентона, и он, кажется, готов к ним присоединиться.


Возраст: 18+ зрителям, достигшим 18 лет
Рейтинг MPAA: R (лицам до 17 лет обязательно присутствие взрослого)
Дата мировой премьеры: 22 января 2017
Дата российской премьеры: 8 марта 2017, «WDSSPR»

Релиз от: RG NNM Club Video

Продолжительность: 01:57:22
Качество видео: BDRip
Перевод: Дублированный (лицензия BD EUR)
Субтитры: Русский, Украинский, Английский

Видео: AVC/H.264, 1280x688, ~5.5 Mbps
Аудио 1: AC3, 6 ch, 640 kbps, Русский (DUB, BD EUR)
Аудио 2: AC3, 6 ch, 640 kbps, Английский (Оригинал)

Трейлер

YouTube

x264 log


---[Information] [28.05.2017 13:56:33] x264 [info]: frame I:1373 Avg QP:15.23 size:135624
---[Information] [28.05.2017 13:56:33] x264 [info]: frame P:40394 Avg QP:17.08 size: 55244
---[Information] [28.05.2017 13:56:33] x264 [info]: frame B:127073 Avg QP:18.89 size: 19069
---[Information] [28.05.2017 13:56:33] x264 [info]: consecutive B-frames: 3.1% 4.1% 6.5% 36.1% 16.0% 21.1% 5.3% 6.1% 0.5% 0.3% 0.1% 0.3% 0.0% 0.3% 0.0% 0.1% 0.1%

MediaInfo:


General
Format : Matroska
Format version : Version 4 / Version 2
File size : 5.56 GiB
Duration : 1 h 57 min
Overall bit rate : 6 782 kb/s
Encoded date : UTC 2017-05-28 13:44:37
Writing application : mkvmerge v12.0.0 ('Trust / Lust') 64bit
Writing library : libebml v1.3.4 + libmatroska v1.4.5
Attachments : 720.log

Video
ID : 1
Format : AVC
Format/Info : Advanced Video Codec
Format profile : High@L4.1
Format settings, CABAC : Yes
Format settings, ReFrames : 9 frames
Codec ID : V_MPEG4/ISO/AVC
Duration : 1 h 57 min
Bit rate : 5 500 kb/s
Width : 1 280 pixels
Height : 688 pixels
Display aspect ratio : 1.85:1
Frame rate mode : Constant
Frame rate : 23.976 (24000/1001) FPS
Color space : YUV
Chroma subsampling : 4:2:0
Bit depth : 8 bits
Scan type : Progressive
Bits/(Pixel*Frame) : 0.260
Stream size : 4.51 GiB (81%)
Writing library : x264 core 148 r2744 b97ae06
Encoding settings : cabac=1 / ref=9 / deblock=1:-1:-1 / analyse=0x3:0x133 / me=umh / subme=9 / psy=1 / psy_rd=1.05:0.00 / mixed_ref=1 / me_range=32 / chroma_me=1 / trellis=2 / 8x8dct=1 / cqm=0 / deadzone=21,11 / fast_pskip=0 / chroma_qp_offset=-2 / threads=6 / lookahead_threads=1 / sliced_threads=0 / nr=0 / decimate=0 / interlaced=0 / bluray_compat=0 / constrained_intra=0 / bframes=16 / b_pyramid=2 / b_adapt=2 / b_bias=0 / direct=3 / weightb=1 / open_gop=0 / weightp=2 / keyint=240 / keyint_min=23 / scenecut=40 / intra_refresh=0 / rc_lookahead=60 / rc=2pass / mbtree=0 / bitrate=5500 / ratetol=1.0 / qcomp=0.70 / qpmin=10 / qpmax=51 / qpstep=4 / cplxblur=20.0 / qblur=0.5 / vbv_maxrate=50000 / vbv_bufsize=50000 / nal_hrd=none / filler=0 / ip_ratio=1.40 / pb_ratio=1.30 / aq=1:0.85
Language : English
Default : Yes
Forced : No
Color range : Limited
Color primaries : BT.709
Transfer characteristics : BT.709
Matrix coefficients : BT.709

Audio #1
ID : 2
Format : AC-3
Format/Info : Audio Coding 3
Format settings, Endianness : Big
Codec ID : A_AC3
Duration : 1 h 57 min
Bit rate mode : Constant
Bit rate : 640 kb/s
Channel(s) : 6 channels
Channel positions : Front: L C R, Side: L R, LFE
Sampling rate : 48.0 kHz
Frame rate : 31.250 FPS (1536 spf)
Bit depth : 16 bits
Compression mode : Lossy
Delay relative to video : 24 ms
Stream size : 537 MiB (9%)
Language : Russian
Service kind : Complete Main
Default : Yes
Forced : No

Audio #2
ID : 3
Format : AC-3
Format/Info : Audio Coding 3
Format settings, Endianness : Big
Codec ID : A_AC3
Duration : 1 h 57 min
Bit rate mode : Constant
Bit rate : 640 kb/s
Channel(s) : 6 channels
Channel positions : Front: L C R, Side: L R, LFE
Sampling rate : 48.0 kHz
Frame rate : 31.250 FPS (1536 spf)
Bit depth : 16 bits
Compression mode : Lossy
Stream size : 537 MiB (9%)
Language : English
Service kind : Complete Main
Default : No
Forced : No

Text #1
ID : 4
Format : UTF-8
Codec ID : S_TEXT/UTF8
Codec ID/Info : UTF-8 Plain Text
Duration : 1 h 54 min
Bit rate : 95 b/s
Count of elements : 1443
Stream size : 80.0 KiB (0%)
Language : Russian
Default : Yes
Forced : No

Text #2
ID : 5
Format : UTF-8
Codec ID : S_TEXT/UTF8
Codec ID/Info : UTF-8 Plain Text
Duration : 1 h 54 min
Bit rate : 85 b/s
Count of elements : 1432
Stream size : 71.6 KiB (0%)
Language : Ukrainian
Default : No
Forced : No

Text #3
ID : 6
Format : UTF-8
Codec ID : S_TEXT/UTF8
Codec ID/Info : UTF-8 Plain Text
Duration : 1 h 45 min
Bit rate : 59 b/s
Count of elements : 1397
Stream size : 46.1 KiB (0%)
Language : English
Default : No
Forced : No

Menu
00:00:00.000 : en:Chapter 1
00:08:03.274 : en:Chapter 2
00:14:26.574 : en:Chapter 3
00:20:20.552 : en:Chapter 4
00:27:35.236 : en:Chapter 5
00:36:22.138 : en:Chapter 6
00:44:13.192 : en:Chapter 7
00:52:33.358 : en:Chapter 8
00:57:29.821 : en:Chapter 9
01:03:28.179 : en:Chapter 10
01:09:31.750 : en:Chapter 11
01:15:48.752 : en:Chapter 12
01:22:57.305 : en:Chapter 13
01:31:03.332 : en:Chapter 14
01:37:39.979 : en:Chapter 15
01:45:56.558 : en:Chapter 16
Скриншоты:

Все одноименные релизы в Клубе

Смотреть Online

http://moonwalk.cc/video/4811ec3bc6ba2a01/iframe
Детали торрента:
Название:Т2 Трейнспоттинг (На игле 2) / T2 Trainspotting (2017) BDRip [H.264/720p]
Дата добавления:28 Май 2017 17:22:19
Размер:5,56 GB
Раздают:12
Качают:3
Форум:Новинки (HD, UHD)

All rights reserved © 2015-2018