TORRENTS43.COM

Скачать Motörhead (Motorhead) - Iron Fist (1992) [FLAC 2.0|96/24|image+.cue|Vinyl-Rip] <Rock, Heavy Metal>


Motörhead - Iron Fist (1992)
Автор рипа: digital2015
Жанр: Rock, Heavy Metal
Продолжительность: 00:36:36
Издатель (лейбл): SNC Records/Castle Classics (Russia)
Номера по каталогу: ME-2029/CLALP123
Кодек: FLAC (image + .cue)
Формат записи: 24/96
Формат раздачи: 24/96
Реальные значения DR: DR10
Источник: Vinyl, LP, Album
Треклист:
A1 Iron Fist
A2 Heart Of Stone
A3 I'm The Doctor
A4 Go To Hell
A5 Loser
A6 Sex & Outrage
B1 America
B2 Shut It Down
B3 Speedfreak
B4 (Don't Let 'Em) Grind Ya Down
B5 (Don't Need) Religion
B6 Bang To Rights

Technical info:

Устройство воспроизведения: Электроника ЭП 017С
Головка звукоснимателя: ГЗМ-053
Фонокоректор: самодельный на п/п
АЦП: ESI Juli@
Программа-оцифровщик: Adobe Audition
Код класса состояния винила: VG
Обработка: удаление щелчков

Отчёт MI:


Общее
Полное имя : D:\[Torrents43.com] Motorhead ‎– Iron Fist [LP] - 1992 (flac)\01. Sound\01. Side 1.flac
Формат : FLAC
Формат/Информация : Free Lossless Audio Codec
Размер файла : 413 Мбайт
Продолжительность : 18 м. 9 с.
Режим общего битрейта : Переменный
Общий поток : 3178 Кбит/сек
Дата записи : 2017-05-28T19:38:15+06:00

Аудио
Формат : FLAC
Формат/Информация : Free Lossless Audio Codec
Продолжительность : 18 м. 9 с.
Вид битрейта : Переменный
Битрейт : 3178 Кбит/сек
Каналы : 2 канала
Расположение каналов : Front: L R
Частота : 96,0 КГц
Битовая глубина : 24 бит
Размер потока : 413 Мбайт (100%)
Библиотека кодирования : libFLAC 1.2.1 (UTC 2007-09-17)

Общее
Полное имя : D:\[Torrents43.com] Motorhead ‎– Iron Fist [LP] - 1992 (flac)\01. Sound\02. Side 2.flac
Формат : FLAC
Формат/Информация : Free Lossless Audio Codec
Размер файла : 420 Мбайт
Продолжительность : 18 м. 26 с.
Режим общего битрейта : Переменный
Общий поток : 3186 Кбит/сек
Дата записи : 2017-05-28T20:04:34+06:00

Аудио
Формат : FLAC
Формат/Информация : Free Lossless Audio Codec
Продолжительность : 18 м. 26 с.
Вид битрейта : Переменный
Битрейт : 3186 Кбит/сек
Каналы : 2 канала
Расположение каналов : Front: L R
Частота : 96,0 КГц
Битовая глубина : 24 бит
Размер потока : 420 Мбайт (100%)
Библиотека кодирования : libFLAC 1.2.1 (UTC 2007-09-17)

Отчёт DRM (DR10):


foobar2000 1.1.3 / Dynamic Range Meter 1.1.1
log date: 2017-05-30 12:06:36

--------------------------------------------------------------------------------
Analyzed: Motorhead / Iron Fist
--------------------------------------------------------------------------------

DR Peak RMS Duration Track
--------------------------------------------------------------------------------
DR10 -0.63 dB -12.67 dB 3:07 ?-A1 Iron Fist
DR10 -0.10 dB -12.13 dB 3:04 ?-A2 Heart Of Stone
DR10 -0.51 dB -12.39 dB 2:39 ?-A3 I'm The Doctor
DR11 -0.14 dB -12.63 dB 3:10 ?-A4 Go To Hell
DR11 -0.69 dB -13.45 dB 3:51 ?-A5 Loser
DR10 -1.01 dB -12.99 dB 2:20 ?-A6 Sex & Outrage
DR10 -0.56 dB -12.30 dB 3:49 ?-B1 America
DR10 -0.51 dB -12.10 dB 2:39 ?-B2 Shut It Down
DR10 -0.75 dB -12.20 dB 3:21 ?-B3 Speedfreak
DR10 -0.35 dB -12.32 dB 3:08 ?-B4 (Don't Let 'Em) Grind Ya Down
DR10 -0.71 dB -13.84 dB 2:41 ?-B5 (Don't Need) Religion
DR11 -1.58 dB -13.80 dB 2:48 ?-B6 Bang To Rights
--------------------------------------------------------------------------------

Number of tracks: 12
Official DR value: DR10

Samplerate: 96000 Hz
Channels: 2
Bits per sample: 24
Bitrate: 3186 kbps
Codec: FLAC
================================================================================

Спектрограмма:



.CUE:


REM GENRE "Heavy Metal"
REM DATE "1992"
REM COMMENT "Vinyl, LP, Album, SNC Records - ME-2029, Castle Classics - CLALP123, Russia"
TITLE "Iron Fist"
PERFORMER "Motorhead"
FILE "01. Side 1.flac" WAVE
TRACK 01 AUDIO
TITLE "A1 Iron Fist"
INDEX 01 00:00:00
TRACK 02 AUDIO
TITLE "A2 Heart Of Stone"
INDEX 01 03:06:54
TRACK 03 AUDIO
TITLE "A3 I'm The Doctor"
INDEX 01 06:10:66
TRACK 04 AUDIO
TITLE "A4 Go To Hell"
INDEX 01 08:49:44
TRACK 05 AUDIO
TITLE "A5 Loser"
INDEX 01 11:59:35
TRACK 06 AUDIO
TITLE "A6 Sex & Outrage"
INDEX 01 15:50:09
FILE "02. Side 2.flac" WAVE
TRACK 07 AUDIO
TITLE "B1 America"
INDEX 01 00:00:00
TRACK 08 AUDIO
TITLE "B2 Shut It Down"
INDEX 01 03:48:74
TRACK 09 AUDIO
TITLE "B3 Speedfreak"
INDEX 01 06:28:35
TRACK 10 AUDIO
TITLE "B4 (Don't Let 'Em) Grind Ya Down"
INDEX 01 09:49:28
TRACK 11 AUDIO
TITLE "B5 (Don't Need) Religion"
INDEX 01 12:57:02
TRACK 12 AUDIO
TITLE "B6 Bang To Rights"
INDEX 01 15:38:34

Covers:




YouTube:

YouTube YouTube YouTube

Детали торрента:
Название:Motörhead (Motorhead) - Iron Fist (1992) [FLAC 2.0|96/24|image+.cue|Vinyl-Rip] <Rock, Heavy Metal>
Дата добавления:30 Май 2017 09:34:28
Размер:840 MB
Раздают:1
Качают:0
Форум:Vinyl-Rip и Hand-Made

All rights reserved © 2015-2018