TORRENTS43.COM

Скачать The Romantic Strings Orchestra - Thanks For The Memory (1995) [FLAC|Lossless|image + .cue] <Instrumental, Easy Listening, Oldies>


The Romantic Strings Orchestra - Thanks For The Memory (1995)
Жанр: Instrumental, Easy Listening, Oldies
Издание: Reader's Digest - S022B
Продолжительность: 01:02:39

Кодек: FLAC
Битрейт: Lossless
Тип рипа: image + .cue

Треклист:
01. Embraceable You (2:31)
02. Over The Rainbow (3:16)
03. Sunrise Serenade (3:00)
04. I'm Gettin' Sentimental Over You (2:53)
05. Body and Soul (3:14)
06. Ciribiribin (3:12)
07. I'm In The Mood For Love (2:39)
08. Too Marvelous For Words (3:02)
09. I Only Have Eyes For You (2:50)
10. Thanks For The Memory (4:58)
11. Deep Purple (4:28)
12. Bidin' My Time (3:01)
13. Someday My Prince Will Come (3:09)
14. Love Is here To Stay (2:30)
15. It's Only A Paper Moon (2:45)

Продолжение треклиста:

16. The Moon of Manakoora (3:46)
17. I've Got The World On A String (2:29)
18. The Very Thought Of You (4:01)
19. The Continental (2:22)
20. Goodnight, Sweetheart (2:32)

Отчёт EAC:


Exact Audio Copy V1.0 beta 3 from 29. August 2011

EAC extraction logfile from 6. May 2017, 20:47

The Romantic Strings Orchestra / Magical Melodies Of The '40s: The World's Most Beautiful Melodies

Used drive : PIONEER BD-RW BDR-TD03 Adapter: 0 ID: 1

Read mode : Secure
Utilize accurate stream : Yes
Defeat audio cache : Yes
Make use of C2 pointers : No

Read offset correction : 667
Overread into Lead-In and Lead-Out : No
Fill up missing offset samples with silence : Yes
Delete leading and trailing silent blocks : No
Null samples used in CRC calculations : Yes
Used interface : Native Win32 interface for Win NT & 2000

Used output format : User Defined Encoder
Selected bitrate : 768 kBit/s
Quality : High
Add ID3 tag : No
Command line compressor : C:\Program Files (x86)\Exact Audio Copy\FLAC\FLAC.EXE
Additional command line options : -6 -V -T "ARTIST=%artist%" -T "TITLE=%title%" -T "ALBUM=%albumtitle%" -T "DATE=%year%" -T "TRACKNUMBER=%tracknr%" -T "GENRE=%genre%" -T "COMMENT=%comment%" -T "BAND=%albuminterpret%" -T "ALBUMARTIST=%albuminterpret%" -T "COMPOSER=%composer%" %haslyrics%--tag-from-file=LYRICS="%lyricsfile%"%haslyrics% -T "DISCNUMBER=%cdnumber%" -T "TOTALDISCS=%totalcds%" -T "TOTALTRACKS=%numtracks%" %hascover%--picture="%coverfile%"%hascover% %source% -o %dest%

TOC of the extracted CD

Track | Start | Length | Start sector | End sector
---------------------------------------------------------
1 | 0:00.00 | 2:31.35 | 0 | 11359
2 | 2:31.35 | 3:16.02 | 11360 | 26061
3 | 5:47.37 | 3:00.13 | 26062 | 39574
4 | 8:47.50 | 2:52.50 | 39575 | 52524
5 | 11:40.25 | 3:14.02 | 52525 | 67076
6 | 14:54.27 | 3:11.73 | 67077 | 81474
7 | 18:06.25 | 2:38.60 | 81475 | 93384
8 | 20:45.10 | 3:02.05 | 93385 | 107039
9 | 23:47.15 | 2:50.27 | 107040 | 119816
10 | 26:37.42 | 4:57.55 | 119817 | 142146
11 | 31:35.22 | 4:28.28 | 142147 | 162274
12 | 36:03.50 | 3:01.25 | 162275 | 175874
13 | 39:05.00 | 3:09.00 | 175875 | 190049
14 | 42:14.00 | 2:30.25 | 190050 | 201324
15 | 44:44.25 | 2:45.25 | 201325 | 213724
16 | 47:29.50 | 3:46.25 | 213725 | 230699
17 | 51:16.00 | 2:29.00 | 230700 | 241874
18 | 53:45.00 | 4:00.50 | 241875 | 259924
19 | 57:45.50 | 2:22.12 | 259925 | 270586
20 | 60:07.62 | 2:31.43 | 270587 | 281954

Range status and errors

Selected range

Filename C:\Users\Deris\Desktop\kpnemo.eu\Memory30\The Romantic Strings Orchestra - Magical Melodies Of The '40s- The World's Most Beautiful Melodies.wav

Peak level 97.1 %
Extraction speed 4.9 X
Range quality 100.0 %
Test CRC 620079D3
Copy CRC 620079D3
Copy OK

No errors occurred

AccurateRip summary

Track 1 accurately ripped (confidence 1) [AA058D85] (AR v2)
Track 2 accurately ripped (confidence 1) [8D518D94] (AR v2)
Track 3 accurately ripped (confidence 1) [8A2EDA0D] (AR v2)
Track 4 accurately ripped (confidence 1) [C9ABD51E] (AR v2)
Track 5 accurately ripped (confidence 1) [C869A6CF] (AR v2)
Track 6 accurately ripped (confidence 1) [84D62BCE] (AR v2)
Track 7 accurately ripped (confidence 1) [27853556] (AR v2)
Track 8 accurately ripped (confidence 1) [AE236236] (AR v2)
Track 9 accurately ripped (confidence 1) [31922634] (AR v2)
Track 10 accurately ripped (confidence 1) [5EBE6A4F] (AR v2)
Track 11 accurately ripped (confidence 1) [EDF8C299] (AR v2)
Track 12 accurately ripped (confidence 1) [C1775AFA] (AR v2)
Track 13 accurately ripped (confidence 1) [1E7C39FC] (AR v2)
Track 14 accurately ripped (confidence 1) [318A7B66] (AR v2)
Track 15 accurately ripped (confidence 1) [31171270] (AR v2)
Track 16 not present in database
Track 17 accurately ripped (confidence 1) [66085555] (AR v2)
Track 18 accurately ripped (confidence 1) [6D453758] (AR v2)
Track 19 accurately ripped (confidence 1) [B8F27CB5] (AR v2)
Track 20 accurately ripped (confidence 1) [CF554327] (AR v2)

19 track(s) accurately ripped
1 track(s) not present in the AccurateRip database

Some tracks could not be verified as accurate

End of status report

---- CUETools DB Plugin V2.1.3

[CTDB TOCID: xp73QpwTtes1iW2DLK5iwBqtukM-] found, Submit result: already submitted
[fd6941ae] (1/1) Accurately ripped

==== Log checksum BF280C87C673CF5EF63DE2D92F10A7F36C5581E69BEE33F6ECD094D71BA44816 ====

Cue Sheet (.cue):


REM GENRE "Big Band"
REM DATE 1995
REM DISCID 460EAF14
REM COMMENT "ExactAudioCopy v1.0b3"
PERFORMER "The Romantic Strings Orchestra"
TITLE "Magical Melodies Of The '40s: The World's Most Beautiful Melodies"
FILE "The Romantic Strings Orchestra - Magical Melodies Of The '40s- The World's Most Beautiful Melodies.flac" WAVE
TRACK 01 AUDIO
TITLE "Embraceable You"
PERFORMER "The Romantic Strings Orchestra"
INDEX 01 00:00:00
TRACK 02 AUDIO
TITLE "Over The Rainbow"
PERFORMER "The Romantic Strings Orchestra"
INDEX 00 02:28:40
INDEX 01 02:31:35
TRACK 03 AUDIO
TITLE "Sunrise Serenade"
PERFORMER "The Romantic Strings Orchestra"
INDEX 00 05:45:05
INDEX 01 05:47:37
TRACK 04 AUDIO
TITLE "I'm Gettin' Sentimental Over You"
PERFORMER "The Romantic Strings Orchestra"
INDEX 00 08:45:22
INDEX 01 08:47:50
TRACK 05 AUDIO
TITLE "Body and Soul"
PERFORMER "The Romantic Strings Orchestra"
INDEX 00 11:37:55
INDEX 01 11:40:25
TRACK 06 AUDIO
TITLE "Ciribiribin"
PERFORMER "The Romantic Strings Orchestra"
INDEX 00 14:51:57
INDEX 01 14:54:27
TRACK 07 AUDIO
TITLE "I'm In The Mood For Love"
PERFORMER "The Romantic Strings Orchestra"
INDEX 00 18:03:55
INDEX 01 18:06:25
TRACK 08 AUDIO
TITLE "Too Marvelous For Words"
PERFORMER "The Romantic Strings Orchestra"
INDEX 00 20:42:41
INDEX 01 20:45:10
TRACK 09 AUDIO
TITLE "I Only Have Eyes For You"
PERFORMER "The Romantic Strings Orchestra"
INDEX 00 23:44:45
INDEX 01 23:47:15
TRACK 10 AUDIO
TITLE "Thanks For The Memory"
PERFORMER "The Romantic Strings Orchestra"
INDEX 00 26:34:72
INDEX 01 26:37:42
TRACK 11 AUDIO
TITLE "Deep Purple"
PERFORMER "The Romantic Strings Orchestra"
INDEX 00 31:32:52
INDEX 01 31:35:22
TRACK 12 AUDIO
TITLE "Bidin' My Time"
PERFORMER "The Romantic Strings Orchestra"
INDEX 00 36:00:07
INDEX 01 36:03:50
TRACK 13 AUDIO
TITLE "Someday My Prince Will Come"
PERFORMER "The Romantic Strings Orchestra"
INDEX 00 39:01:40
INDEX 01 39:05:00
TRACK 14 AUDIO
TITLE "Love Is here To Stay"
PERFORMER "The Romantic Strings Orchestra"
INDEX 00 42:11:03
INDEX 01 42:14:00
TRACK 15 AUDIO
TITLE "It's Only A Paper Moon"
PERFORMER "The Romantic Strings Orchestra"
INDEX 00 44:41:02
INDEX 01 44:44:25
TRACK 16 AUDIO
TITLE "The Moon of Manakoora"
PERFORMER "The Romantic Strings Orchestra"
INDEX 00 47:26:40
INDEX 01 47:29:50
TRACK 17 AUDIO
TITLE "I've Got The World On A String"
PERFORMER "The Romantic Strings Orchestra"
INDEX 00 51:12:67
INDEX 01 51:16:00
TRACK 18 AUDIO
TITLE "The Very Thought Of You"
PERFORMER "The Romantic Strings Orchestra"
INDEX 00 53:41:47
INDEX 01 53:45:00
TRACK 19 AUDIO
TITLE "The Continental"
PERFORMER "The Romantic Strings Orchestra"
INDEX 00 57:42:37
INDEX 01 57:45:50
TRACK 20 AUDIO
TITLE "Goodnight, Sweetheart"
PERFORMER "The Romantic Strings Orchestra"
INDEX 00 60:04:70
INDEX 01 60:07:62

Отчёт auCDtect Task manager:


-----------------------

DON'T MODIFY THIS FILE

-----------------------

PERFORMER: auCDtect Task Manager, ver. 1.6.0 RC1 build 1.6.0.1
Copyright (c) 2008-2010 y-soft. All rights reserved
http://y-soft.org

ANALYZER: auCDtect: CD records authenticity detector, version 0.8.2
Copyright (c) 2004 Oleg Berngardt. All rights reserved.
Copyright (c) 2004 Alexander Djourik. All rights reserved.

FILE: The Romantic Strings Orchestra - Magical Melodies Of The '40s- The World's Most Beautiful Melodies.flac
Size: 334866800 Hash: 77A057F256E3EC5FC4B1B5CDDADA2C08 Accuracy: -m0
Conclusion: CDDA 100%
Signature: F9FF84EB487CF0EB9621C7D451F450C7F23F1012


Детали торрента:
Название:The Romantic Strings Orchestra - Thanks For The Memory (1995) [FLAC|Lossless|image + .cue] <Instrumental, Easy Listening, Oldies>
Дата добавления:12 Июн 2017 18:03:31
Размер:326 MB
Раздают:1
Качают:0
Форум:Instrumental (Lossless)

All rights reserved © 2015-2018