TORRENTS43.COM

Скачать Lynda.com | Базовый курс Pixar RenderMan / Pixar's RenderMan Essential Training (2016) PCRec [EN]


Lynda.com | Базовый курс Pixar RenderMan / Pixar's RenderMan Essential Training (2016) PCRec [EN]
Автор (режиссер): Christos Obretenov
Производство: Lynda.com
Жанр: 3D графика

Описание:
Когда-нибудь задавались вопросом, как Pixar делает свои анимационные фильмы и как большинство студий во всём мире делает свои визуальные эффекты?
Встречайте RenderMan! Созданный Pixar и впервые доступный для некоммерческого использования, RenderMan - это высококачественный пакет 3D визуализации, который может использоваться для любых 3D проектов рендеринга: анимации, визуальных эффектов, архитектуры и т.д. Это введение преподаёт основы использования RenderMan с Autodesk Maya, включая такие функции, как произвольные выходные переменные (AOVs), трассировку пути и интеграторы.
Курс рассматривает все источники света, предлагаемые в ПО (area lights, mesh lights и т.д.), а также основные сети шейдинга (PxrDisney и материалы LM-layered) и параметры настройки, предоставленные в новом движке RIS path-tracing rendering. Архитектор шейдинга Christos Obretenov также демонстрирует методы создания реалистичных стеклянных поверхностей и натюрмортных сцен и, таким образом, вы увидите, какие возможности предлагает RenderMan.

Темы курса:

- создание вашего первого рендера в RenderMan
- использование интерактивного прогрессивного рендеринга (IPR)
- работа с AOVs
- рендеринг с различными интеграторами, включая path tracer и bidirectional VCM
- подготовка сцены с mesh lights
- настройка Max Path Length и других параметров рендеринга
- рендеринг материалов
- освещение в RenderMan.

Необходимое программное обеспечение: RenderMan, Autodesk Maya.
Продолжительность: 04:33:26
Качество видео: PCRec
Язык озвучки: Русский
Перевод: AlexJP

Видео: AVC/H.264, 1280x720, ~253 Kbps
Аудио: AAC, 1 ch, 128 Kbps

Mediainfo:


General
Complete name : 1_01. Background - RenderMan for Maya.mp4
Format : MPEG-4
Format profile : Base Media
Codec ID : isom
File size : 16.8 MiB
Duration : 6mn 6s
Overall bit rate mode : Variable
Overall bit rate : 385 Kbps

Video
ID : 1
Format : AVC
Format/Info : Advanced Video Codec
Format profile : Main@L3.1
Format settings, CABAC : Yes
Format settings, ReFrames : 5 frames
Codec ID : avc1
Codec ID/Info : Advanced Video Coding
Duration : 6mn 6s
Bit rate mode : Variable
Bit rate : 253 Kbps
Maximum bit rate : 1 000 Kbps
Width : 1 280 pixels
Height : 720 pixels
Display aspect ratio : 16:9
Frame rate mode : Constant
Frame rate : 15.000 fps
Color space : YUV
Chroma subsampling : 4:2:0
Bit depth : 8 bits
Scan type : Progressive
Bits/(Pixel*Frame) : 0.018
Stream size : 11.0 MiB (66%)
Writing library : x264 core 129
Language : English

Audio
ID : 2
Format : AAC
Format/Info : Advanced Audio Codec
Format profile : LC
Codec ID : 40
Duration : 6mn 6s
Duration_LastFrame : 35ms
Bit rate mode : Constant
Bit rate : 128 Kbps
Channel count : 2 channels
Original Channel count : 1 channel
Channel positions : Front: C
Sampling rate : 44.1 KHz
Compression mode : Lossy
Delay relative to video : 67ms
Stream size : 5.59 MiB (33%)
Language : Russian
Скриншоты:



Детали торрента:
Название:Lynda.com | Базовый курс Pixar RenderMan / Pixar's RenderMan Essential Training (2016) PCRec [EN]
Дата добавления:18 Июн 2017 05:30:08
Размер:1,18 GB
Раздают:6
Качают:0
Форум:Дизайн

All rights reserved © 2015-2018