TORRENTS43.COM

Скачать Ignasi Terraza Trio - Jazz a les Fosques I (1999) 2006, Swit Records [FLAC|Lossless|tracks + .cue] <Mainstream Jazz, Piano Jazz>


Ignasi Terraza Trio - Jazz a les Fosques I (1999) 2006, Swit Records
Жанр: Mainstream Jazz, Piano Jazz
Издание: Swit Records - SWIT04
Продолжительность: 01:06:05

Кодек: FLAC (tracks+.cue)
Битрейт: Lossless
Источник (релизер): hirudolibera
Страна-производитель диска: Spain
Наличие сканов в содержимом раздачи: нет

Треклист:

01. Candy [05:41]
02. September Song [06:25]
03. Love for Sale [05:56]
04. I Remember Clifford [07:13]
05. Secret Love [04:05]
06. Can't We Be Friends? [07:04]
07. When I Fall in Love [07:26]
08. Our Love Is Here to Stay [06:52]
09. On Green Dolphin Street [02:53]
10. Chega de Saudade [04:34]
11. Just You, Just Me [08:02]

Отчёт EAC:


Exact Audio Copy V1.3 from 2. September 2016

EAC extraction logfile from 30. June 2017, 14:06

Ignasi Terraza Trio / Jazz a les Fosques

Used drive : HL-DT-STBD-RE BE16NU50 Adapter: 1 ID: 0

Read mode : Secure
Utilize accurate stream : Yes
Defeat audio cache : Yes
Make use of C2 pointers : No

Read offset correction : 6
Overread into Lead-In and Lead-Out : No
Fill up missing offset samples with silence : Yes
Delete leading and trailing silent blocks : No
Null samples used in CRC calculations : Yes
Used interface : Native Win32 interface for Win NT & 2000
Gap handling : Appended to previous track

Used output format : User Defined Encoder
Selected bitrate : 1024 kBit/s
Quality : High
Add ID3 tag : No
Command line compressor : C:\Program Files (x86)\Exact Audio Copy\FLAC\FLAC.EXE
Additional command line options : -8 -e -p -V -T "PERFORMER=%albuminterpret%" -T "COMPOSER=%composer%" -T "ALBUMARTIST=%albumartist%" -T "ARTIST=%artist%" -T "TITLE=%title%" -T "ALBUM=%albumtitle%" -T "DATE=%year%" -T "TRACKNUMBER=%tracknr%" -T "TOTALTRACKS=%numtracks%" -T "DISCNUMBER=%cdnumber%" -T "TOTALDISCS=%totalcds%" -T "COMMENT=%comment%" %source% -o %dest%

TOC of the extracted CD

Track | Start | Length | Start sector | End sector
---------------------------------------------------------
1 | 0:00.00 | 5:40.27 | 0 | 25526
2 | 5:40.27 | 6:24.26 | 25527 | 54352
3 | 12:04.53 | 5:55.42 | 54353 | 81019
4 | 18:00.20 | 7:12.33 | 81020 | 113452
5 | 25:12.53 | 4:04.05 | 113453 | 131757
6 | 29:16.58 | 7:03.63 | 131758 | 163545
7 | 36:20.46 | 7:25.63 | 163546 | 196983
8 | 43:46.34 | 6:51.19 | 196984 | 227827
9 | 50:37.53 | 2:52.09 | 227828 | 240736
10 | 53:29.62 | 4:33.29 | 240737 | 261240
11 | 58:03.16 | 8:01.56 | 261241 | 297371

Track 1

Filename C:\EAC\01 - Candy.wav

Pre-gap length 0:00:02.00

Peak level 98.1 %
Extraction speed 1.2 X
Track quality 100.0 %
Test CRC E6B4E9FB
Copy CRC E6B4E9FB
Accurately ripped (confidence 2) [CD77A076] (AR v2)
Copy OK

Track 2

Filename C:\EAC\02 - September Song.wav

Peak level 98.2 %
Extraction speed 1.4 X
Track quality 100.0 %
Test CRC 5CE4C076
Copy CRC 5CE4C076
Accurately ripped (confidence 2) [33AAB43D] (AR v2)
Copy OK

Track 3

Filename C:\EAC\03 - Love for Sale.wav

Peak level 98.0 %
Extraction speed 1.5 X
Track quality 99.9 %
Test CRC C1B014B6
Copy CRC C1B014B6
Accurately ripped (confidence 2) [24B2C165] (AR v2)
Copy OK

Track 4

Filename C:\EAC\04 - I Remember Clifford.wav

Peak level 98.0 %
Extraction speed 1.7 X
Track quality 100.0 %
Test CRC 782678ED
Copy CRC 782678ED
Accurately ripped (confidence 2) [FBE89C00] (AR v2)
Copy OK

Track 5

Filename C:\EAC\05 - Secret Love.wav

Peak level 98.0 %
Extraction speed 1.7 X
Track quality 100.0 %
Test CRC D41580D5
Copy CRC D41580D5
Accurately ripped (confidence 2) [35F17593] (AR v2)
Copy OK

Track 6

Filename C:\EAC\06 - Can't We Be Friends.wav

Peak level 98.2 %
Extraction speed 1.9 X
Track quality 100.0 %
Test CRC 8F8D1A7E
Copy CRC 8F8D1A7E
Accurately ripped (confidence 2) [AB7A6657] (AR v2)
Copy OK

Track 7

Filename C:\EAC\07 - When I Fall in Love.wav

Peak level 98.1 %
Extraction speed 2.0 X
Track quality 99.9 %
Test CRC 94173F2F
Copy CRC 94173F2F
Accurately ripped (confidence 2) [609DF428] (AR v2)
Copy OK

Track 8

Filename C:\EAC\08 - Our Love is Here to Stay.wav

Peak level 97.9 %
Extraction speed 2.2 X
Track quality 100.0 %
Test CRC 4FDEF714
Copy CRC 4FDEF714
Accurately ripped (confidence 2) [20B918A1] (AR v2)
Copy OK

Track 9

Filename C:\EAC\09 - On Green Dolphin Street.wav

Peak level 98.1 %
Extraction speed 2.0 X
Track quality 100.0 %
Test CRC D059E0DA
Copy CRC D059E0DA
Accurately ripped (confidence 2) [D326A51B] (AR v2)
Copy OK

Track 10

Filename C:\EAC\10 - Chega de Saudade.wav

Peak level 98.1 %
Extraction speed 2.2 X
Track quality 100.0 %
Test CRC B41ABD39
Copy CRC B41ABD39
Accurately ripped (confidence 1) [F992A609] (AR v2)
Copy OK

Track 11

Filename C:\EAC\11 - Just You, Just Me.wav

Peak level 98.0 %
Extraction speed 2.3 X
Track quality 99.9 %
Test CRC DD5508DE
Copy CRC DD5508DE
Accurately ripped (confidence 2) [665585CD] (AR v2)
Copy OK

All tracks accurately ripped

No errors occurred

End of status report

---- CUETools DB Plugin V2.1.6

[CTDB TOCID: Ybe4EU5vipuw6S_F2i7MuIslak8-] disk not present in database
Submit result: Die Anfrage wurde abgebrochen: Die Anfrage wurde abgebrochen..

==== Log checksum B1337C0195DD79E97D5774297C95BF72B76DCA9BA666D5473E3034AFA711455B ====

Cue Sheet (.cue):


REM GENRE Jazz
REM DATE 1999
REM DISCID 8E0F7C0B
REM COMMENT "ExactAudioCopy v1.3"
PERFORMER "Ignasi Terraza"
TITLE "Jazz a les Fosques I"
FILE "01 - Candy.wav" WAVE
TRACK 01 AUDIO
TITLE "Candy"
PERFORMER "Ignasi Terraza"
ISRC ES8420900401
INDEX 01 00:00:00
FILE "02 - September Song.wav" WAVE
TRACK 02 AUDIO
TITLE "September Song"
PERFORMER "Ignasi Terraza"
ISRC ES8420900402
INDEX 01 00:00:00
FILE "03 - Love for Sale.wav" WAVE
TRACK 03 AUDIO
TITLE "Love for Sale"
PERFORMER "Ignasi Terraza"
ISRC ES8420900403
INDEX 01 00:00:00
FILE "04 - I Remember Clifford.wav" WAVE
TRACK 04 AUDIO
TITLE "I Remember Clifford"
PERFORMER "Ignasi Terraza"
ISRC ES8420900404
INDEX 01 00:00:00
FILE "05 - Secret Love.wav" WAVE
TRACK 05 AUDIO
TITLE "Secret Love"
PERFORMER "Ignasi Terraza"
ISRC ES8420900405
INDEX 01 00:00:00
FILE "06 - Can't We Be Friends.wav" WAVE
TRACK 06 AUDIO
TITLE "Can't We Be Friends?"
PERFORMER "Ignasi Terraza"
ISRC ES8420900406
INDEX 01 00:00:00
FILE "07 - When I Fall in Love.wav" WAVE
TRACK 07 AUDIO
TITLE "When I Fall in Love"
PERFORMER "Ignasi Terraza"
ISRC ES8420900407
INDEX 01 00:00:00
FILE "08 - Our Love Is Here to Stay.wav" WAVE
TRACK 08 AUDIO
TITLE "Our Love Is Here to Stay"
PERFORMER "Ignasi Terraza"
ISRC ES8420900407
INDEX 01 00:00:00
FILE "09 - On Green Dolphin Street.wav" WAVE
TRACK 09 AUDIO
TITLE "On Green Dolphin Street"
PERFORMER "Ignasi Terraza"
ISRC ES8420900408
INDEX 01 00:00:00
FILE "10 - Chega de Saudade.wav" WAVE
TRACK 10 AUDIO
TITLE "Chega de Saudade"
PERFORMER "Ignasi Terraza"
ISRC ES8420900410
INDEX 01 00:00:00
FILE "11 - Just You, Just Me.wav" WAVE
TRACK 11 AUDIO
TITLE "Just You, Just Me"
PERFORMER "Ignasi Terraza"
ISRC ES8420900411
INDEX 01 00:00:00

Отчёт auCDtect Task manager:


-----------------------

DON'T MODIFY THIS FILE

-----------------------

PERFORMER: auCDtect Task Manager, ver. 1.6.0 RC1 build 1.6.0.1
Copyright (c) 2008-2010 y-soft. All rights reserved
http://y-soft.org

ANALYZER: auCDtect: CD records authenticity detector, version 0.8.2
Copyright (c) 2004 Oleg Berngardt. All rights reserved.
Copyright (c) 2004 Alexander Djourik. All rights reserved.

FILE: 11 - Just You, Just Me.flac
Size: 47371970 Hash: D617A5B479DC01D4CE3E107C12F2830F Accuracy: -m0
Conclusion: CDDA 94%
Signature: E10946CF9AF664BDEB3B2B8E30725563A3457FA5
FILE: 10 - Chega de Saudade.flac
Size: 28233129 Hash: 297188A6FB3995FA4760629826108546 Accuracy: -m0
Conclusion: CDDA 85%
Signature: 3E500764B8C963EFDC18B328BA3DAE867405ADD6
FILE: 09 - On Green Dolphin Street.flac
Size: 19653038 Hash: AB5F6C1D786199044E62D7F9A7302F99 Accuracy: -m0
Conclusion: CDDA 100%
Signature: B949D4E32D12D9E3D56613DD2A1049FD52678428
FILE: 08 - Our Love Is Here to Stay.flac
Size: 36831014 Hash: 8D01931A0828227DC282657F9E2BCA10 Accuracy: -m0
Conclusion: CDDA 58%
Signature: EB3CA169ADC60E2BE836089876643CAD34BADD76
FILE: 07 - When I Fall in Love.flac
Size: 39229876 Hash: FEA2A89D609AB96FFE0028C06D1D2FC8 Accuracy: -m0
Conclusion: CDDA 100%
Signature: 2D85B004B47E6A0BADB1690F0A0D20E75315E501
FILE: 06 - Can't We Be Friends.flac
Size: 41616047 Hash: 0D84F6E6ECB44B616FB12EB31513D388 Accuracy: -m0
Conclusion: CDDA 100%
Signature: 6E0ECB5183F4E0158F7A9F7B60F87AD7028CF30A
FILE: 05 - Secret Love.flac
Size: 28222129 Hash: F7743774868130A090B091937F62DE07 Accuracy: -m0
Conclusion: CDDA 100%
Signature: 191AEF2085585CB8EBEEBDD64A461820EBE3797B
FILE: 04 - I Remember Clifford.flac
Size: 37907789 Hash: 7231E912A336FD1D4C68DC293EA22F8E Accuracy: -m0
Conclusion: CDDA 43%
Signature: F41E255CE008DE4019FB4A2A64B736C39022FFD9
FILE: 03 - Love for Sale.flac
Size: 33520403 Hash: B11FDECDB9B7AF13816244C8F0427EAD Accuracy: -m0
Conclusion: CDDA 76%
Signature: 88D24A394A227E2527E5B8B77999BAAEF24EE6A0
FILE: 02 - September Song.flac
Size: 34617259 Hash: 233A6BC26DA78C47D43F54946EE7A136 Accuracy: -m0
Conclusion: CDDA 54%
Signature: 774F49C0E7374096457225682597F09B6FECAF60
FILE: 01 - Candy.flac
Size: 33427326 Hash: 1B9297511E87946F6E1495EB45B61E6A Accuracy: -m0
Conclusion: CDDA 100%
Signature: 1C202F9A9981773DA9FEB45841D6B10CFE0C05B7

Состав

Ignasi Terraza - piano
Manuel Alvarez - bass
Oriol Bordas - drums

Recorded live at sala Cafe-Teatre del Teatreneu, Barcelona on October 29-31, 1999.
Детали торрента:
Название:Ignasi Terraza Trio - Jazz a les Fosques I (1999) 2006, Swit Records [FLAC|Lossless|tracks + .cue] <Mainstream Jazz, Piano Jazz>
Дата добавления:05 Июл 2017 07:57:56
Размер:364 MB
Раздают:2
Качают:0
Форум:Jazz (Lossless)

All rights reserved © 2015-2018