TORRENTS43.COM

Скачать Репликант / Replicant (2001) BDRip [H.264/1080p-LQ]


Репликант / Replicant (2001) BDRip [H.264/1080p-LQ]«A ruthless killer... to destroy him, they had to create him»
Производство: США / 777 Films Corporation, Artisan Entertainment, Millennium Films, Replicant Pictures
Жанр: Фантастика, Боевик, Триллер

Режиссер: Ринго Лам
Продюсер: Дэвид Дадон, Дэнни Лернер, Джон Томпсон
Актеры: Жан-Клод Ван Дамм, Майкл Рукер, Катрин Дент, Брэндон Джеймс Олсон, Пэм Хайатт, Йен Робисан, Аллан Грэй, Джеймс Хатсон, Пол МакДжиллион, Питер Флемминг

Описание:
Полиция сбилась с ног, разыскивая серийного убийцу, совершившего более десятка нападений на одиноких матерей с детьми. Безжалостный маньяк оставляет на месте преступления всегда одно и то же — истерзанный и сожженный труп женщины и практически никаких улик, позволяющих выйти на его след. На помощь полиции приходит национальная служба безопасности, по заданию которой ученые, используя один-единственный волос убийцы, найденный на месте преступления, создали его генетического двойника — репликанта.
Специалисты полагают, что клон, благодаря генетической памяти, способен вывести их на след оригинала. Провести операцию поручают полицейскому Джейку, который долго и безуспешно преследовал маньяка и даже стал его личным врагом. Сможет ли Джейк с помощью своего подопечного — репликанта — найти и обезвредить опасного преступника или же «голос крови» победит и в городе появится еще один близнец-убийца?…


Возраст: 16+ (зрителям, достигшим 16 лет)
Рейтинг MPAA: R (лицам до 17 лет обязательно присутствие взрослого)

Релиз от: R.G. Goldenshara

Продолжительность: 01:41:01
Качество видео: BDRip (1080p-LQ)
Перевод: Дублированный (R5)
Субтитры: Русские, Английские, Английские (SDH)

Видео: AVC/H.264, 1920x1080 (16:9), ~5746 kbps, 23,976 fps
Аудио: AC3, 6 ch, 48 kHz, 448 kbps

Mediainfo:


General
Unique ID : 252442219567004445902433046677677413576 (0xBDEA9A5D7F80A57393AFD0A1949814C8)
Complete name : E:\Мои рипы\Репликант.2001.BDRip.1080p.DUB.mkv
Format : Matroska
Format version : Version 4 / Version 2
File size : 4.37 GiB
Duration : 1 h 41 min
Overall bit rate : 6 194 kb/s
Movie name : Двойник (Репликант) / Replicant [2001] -=BDRip (AVC) by 0ptimus =-
Encoded date : UTC 2017-07-05 05:06:05
Writing application : mkvmerge v6.8.0 ('Theme for Great Cities') 32bit built on Mar 2 2014 21:27:07
Writing library : libebml v1.3.0 + libmatroska v1.4.1

Video
ID : 1
Format : AVC
Format/Info : Advanced Video Codec
Format profile : High@L4.1
Format settings, CABAC : Yes
Format settings, ReFrames : 4 frames
Codec ID : V_MPEG4/ISO/AVC
Duration : 1 h 41 min
Bit rate : 5 746 kb/s
Width : 1 920 pixels
Height : 1 080 pixels
Display aspect ratio : 16:9
Frame rate mode : Constant
Frame rate : 23.976 FPS
Color space : YUV
Chroma subsampling : 4:2:0
Bit depth : 8 bits
Scan type : Progressive
Bits/(Pixel*Frame) : 0.116
Stream size : 3.97 GiB (91%)
Writing library : x264 core 146 r2538 121396c
Encoding settings : cabac=1 / ref=4 / deblock=1:-3:-3 / analyse=0x3:0x113 / me=umh / subme=11 / psy=1 / psy_rd=1.00:0.15 / mixed_ref=1 / me_range=48 / chroma_me=1 / trellis=2 / 8x8dct=1 / cqm=0 / deadzone=21,11 / fast_pskip=0 / chroma_qp_offset=-4 / threads=6 / lookahead_threads=1 / sliced_threads=0 / nr=0 / decimate=1 / interlaced=0 / bluray_compat=0 / constrained_intra=0 / bframes=8 / b_pyramid=2 / b_adapt=2 / b_bias=0 / direct=2 / weightb=1 / open_gop=0 / weightp=2 / keyint=250 / keyint_min=23 / scenecut=40 / intra_refresh=0 / rc_lookahead=50 / rc=2pass / mbtree=0 / bitrate=5746 / ratetol=1.0 / qcomp=0.60 / qpmin=0 / qpmax=69 / qpstep=4 / cplxblur=20.0 / qblur=0.5 / vbv_maxrate=14000 / vbv_bufsize=14000 / nal_hrd=none / filler=0 / ip_ratio=1.40 / pb_ratio=1.30 / aq=2:1.00
Language : English
Default : Yes
Forced : No
Color range : Limited
Color primaries : Generic film
Matrix coefficients : YCgCo

Audio
ID : 2
Format : AC-3
Format/Info : Audio Coding 3
Mode extension : CM (complete main)
Format settings, Endianness : Big
Codec ID : A_AC3
Duration : 1 h 41 min
Bit rate mode : Constant
Bit rate : 448 kb/s
Channel(s) : 6 channels
Channel positions : Front: L C R, Side: L R, LFE
Sampling rate : 48.0 kHz
Frame rate : 31.250 FPS (1536 spf)
Compression mode : Lossy
Stream size : 324 MiB (7%)
Title : Дубляж
Language : Russian
Default : Yes
Forced : No

Text #1
ID : 3
Format : UTF-8
Codec ID : S_TEXT/UTF8
Codec ID/Info : UTF-8 Plain Text
Title : R5
Language : Russian
Default : No
Forced : No

Text #2
ID : 4
Format : UTF-8
Codec ID : S_TEXT/UTF8
Codec ID/Info : UTF-8 Plain Text
Language : English
Default : No
Forced : No

Text #3
ID : 5
Format : UTF-8
Codec ID : S_TEXT/UTF8
Codec ID/Info : UTF-8 Plain Text
Title : SDH
Language : English
Default : No
Forced : No

Menu
00:00:00.000 : en:Chapter 1
00:07:02.463 : en:Chapter 2
00:11:19.595 : en:Chapter 3
00:14:06.510 : en:Chapter 4
00:21:15.730 : en:Chapter 5
00:27:59.425 : en:Chapter 6
00:32:33.491 : en:Chapter 7
00:40:16.246 : en:Chapter 8
00:45:53.583 : en:Chapter 9
00:49:55.199 : en:Chapter 10
00:54:40.235 : en:Chapter 11
01:02:23.405 : en:Chapter 12
01:06:51.840 : en:Chapter 13
01:10:34.229 : en:Chapter 14
01:23:57.532 : en:Chapter 15
01:27:12.560 : en:Chapter 16
01:40:27.770 : en:Chapter 17

Ошибки в фильме:

В начальной сцене картины мы видим окровавленное лицо матери — в разных кадрах пятна крови находятся в разных местах. После смерти глаза матери открыты, но когда убийца ее фотографирует, на снимках глаза то открыты, то закрыты.
В сцене, когда Джек закрывает Репликанта в ванной, он надевает ему наручники на левую руку. Однако утром, когда коп приходит выпустить парня, наручники оказываются на правой руке.
Скриншоты:


Все одноименные релизы в Клубе

Смотреть Online

http://moonwalk.cc/video/4736381139e13c7d/iframe
Детали торрента:
Название:Репликант / Replicant (2001) BDRip [H.264/1080p-LQ]
Дата добавления:05 Июл 2017 21:43:34
Размер:4,37 GB
Раздают:
Качают:0
Форум:Зарубежные Фильмы (HD*Rip/LQ, DVDRip, SATRip, VHSRip)

All rights reserved © 2015-2018