TORRENTS43.COM

Скачать Dolly Parton - The Real... Dolly Parton (The Ultimate Collection) (2013) 3CD [FLAC|Lossless|tracks + .cue] <Country>


Dolly Parton - The Real... Dolly Parton (The Ultimate Collection) (2013) 3CD
Жанр: Country
Издание: Sony Music - 88883782442
Источник: Собственный рип
Продолжительность: 02:43:27

Кодек: FLAC
Битрейт: Lossless
Тип рипа: tracks + .cue

Треклист:
Disc 1
01. Dumb Blonde
02. Just Because I'm A Woman
03. D.I.V.O.R.C.E.
04. You're Gonna Be Sorry
05. The Last Thing On My Mind
06. We'll Get Ahead Someday
07. Jeannie's Afraid Of The Dark
08. Yours Love
09. Just Someone I Used To Know
10. The Right Combination
11. Please Don't Stop Loving Me
12. Together You And I

Продолжение треклиста

13. In The Ghetto
14. Mama Say A Prayer
15. Coat Of Many Colors
16. Letter To Heaven
17. Joshua
Прoдолжительность: 00:44:52

Отчёт EAC:


Exact Audio Copy V1.3 from 2. September 2016

EAC extraction logfile from 7. July 2017, 17:28

Dolly Parton / The Real... Dolly Parton - CD 1

Used drive : TSSTcorpCDDVDW SE-208AB Adapter: 2 ID: 0

Read mode : Secure
Utilize accurate stream : Yes
Defeat audio cache : Yes
Make use of C2 pointers : No

Read offset correction : 6
Overread into Lead-In and Lead-Out : No
Fill up missing offset samples with silence : Yes
Delete leading and trailing silent blocks : No
Null samples used in CRC calculations : Yes
Used interface : Installed external ASPI interface
Gap handling : Appended to previous track

Used output format : User Defined Encoder
Selected bitrate : 768 kBit/s
Quality : High
Add ID3 tag : No
Command line compressor : C:\Program Files (x86)\Exact Audio Copy\Flac\flac.exe
Additional command line options : -8 -V -T "ARTIST=%artist%" -T "TITLE=%title%" -T "ALBUM=%albumtitle%" -T "DATE=%year%" -T "TRACKNUMBER=%tracknr%" -T "GENRE=%genre%" -T "COMMENT=%comment%" -T "BAND=%albuminterpret%" -T "ALBUMARTIST=%albuminterpret%" -T "COMPOSER=%composer%" %haslyrics%--tag-from-file=LYRICS="%lyricsfile%"%haslyrics% -T "DISCNUMBER=%cdnumber%" -T "TOTALDISCS=%totalcds%" -T "TOTALTRACKS=%numtracks%" %hascover%--picture="%coverfile%"%hascover% %source% -o %dest%

TOC of the extracted CD

Track | Start | Length | Start sector | End sector
---------------------------------------------------------
1 | 0:00.00 | 2:30.16 | 0 | 11265
2 | 2:30.16 | 3:05.41 | 11266 | 25181
3 | 5:35.57 | 2:44.61 | 25182 | 37542
4 | 8:20.43 | 2:15.10 | 37543 | 47677
5 | 10:35.53 | 2:35.72 | 47678 | 59374
6 | 13:11.50 | 1:57.12 | 59375 | 68161
7 | 15:08.62 | 2:47.61 | 68162 | 80747
8 | 17:56.48 | 2:28.15 | 80748 | 91862
9 | 20:24.63 | 2:23.23 | 91863 | 102610
10 | 22:48.11 | 2:53.35 | 102611 | 115620
11 | 25:41.46 | 2:47.72 | 115621 | 128217
12 | 28:29.43 | 2:17.17 | 128218 | 138509
13 | 30:46.60 | 2:45.32 | 138510 | 150916
14 | 33:32.17 | 2:46.50 | 150917 | 163416
15 | 36:18.67 | 3:05.69 | 163417 | 177360
16 | 39:24.61 | 2:25.49 | 177361 | 188284
17 | 41:50.35 | 3:01.57 | 188285 | 201916

Track 1

Filename C:\Program Files (x86)\Exact Audio Copy\Flac\01. Dumb Blonde.wav

Pre-gap length 0:00:02.00

Peak level 99.6 %
Extraction speed 0.9 X
Track quality 100.0 %
Test CRC 1BEB4DEE
Copy CRC 1BEB4DEE
Accurately ripped (confidence 17) [1B27BF34] (AR v2)
Copy OK

Track 2

Filename C:\Program Files (x86)\Exact Audio Copy\Flac\02. Just Because I'm A Woman.wav

Pre-gap length 0:00:01.58

Peak level 99.6 %
Extraction speed 1.1 X
Track quality 100.0 %
Test CRC CE1F7577
Copy CRC CE1F7577
Accurately ripped (confidence 17) [220F7AC9] (AR v2)
Copy OK

Track 3

Filename C:\Program Files (x86)\Exact Audio Copy\Flac\03. D-I-V-O-R-C-E.wav

Pre-gap length 0:00:01.58

Peak level 99.6 %
Extraction speed 1.1 X
Track quality 100.0 %
Test CRC 9AE4C14F
Copy CRC 9AE4C14F
Accurately ripped (confidence 16) [3450D143] (AR v2)
Copy OK

Track 4

Filename C:\Program Files (x86)\Exact Audio Copy\Flac\04. You're Gonna Be Sorry.wav

Pre-gap length 0:00:01.58

Peak level 99.6 %
Extraction speed 0.9 X
Track quality 99.9 %
Test CRC 58779289
Copy CRC 58779289
Accurately ripped (confidence 17) [FB646A78] (AR v2)
Copy OK

Track 5

Filename C:\Program Files (x86)\Exact Audio Copy\Flac\05. The Last Thing On My Mind.wav

Pre-gap length 0:00:01.58

Peak level 99.6 %
Extraction speed 1.2 X
Track quality 100.0 %
Test CRC 0D3DA926
Copy CRC 0D3DA926
Accurately ripped (confidence 17) [841A7E82] (AR v2)
Copy OK

Track 6

Filename C:\Program Files (x86)\Exact Audio Copy\Flac\06. We'll Get Ahead Someday.wav

Pre-gap length 0:00:01.58

Peak level 99.6 %
Extraction speed 1.0 X
Track quality 99.9 %
Test CRC 1B77D6BA
Copy CRC 1B77D6BA
Accurately ripped (confidence 17) [2A23F67B] (AR v2)
Copy OK

Track 7

Filename C:\Program Files (x86)\Exact Audio Copy\Flac\07. Jeannie's Afraid Of The Dark.wav

Pre-gap length 0:00:01.58

Peak level 94.4 %
Extraction speed 1.4 X
Track quality 100.0 %
Test CRC 2A1FDF99
Copy CRC 2A1FDF99
Accurately ripped (confidence 17) [C3D39D98] (AR v2)
Copy OK

Track 8

Filename C:\Program Files (x86)\Exact Audio Copy\Flac\08. Yours Love.wav

Pre-gap length 0:00:01.58

Peak level 99.6 %
Extraction speed 1.4 X
Track quality 100.0 %
Test CRC 971BD298
Copy CRC 971BD298
Accurately ripped (confidence 17) [7F893D77] (AR v2)
Copy OK

Track 9

Filename C:\Program Files (x86)\Exact Audio Copy\Flac\09. Just Someone I Used To Know.wav

Pre-gap length 0:00:01.58

Peak level 99.6 %
Extraction speed 1.4 X
Track quality 100.0 %
Test CRC C404D6FA
Copy CRC C404D6FA
Accurately ripped (confidence 17) [C7F1CE8E] (AR v2)
Copy OK

Track 10

Filename C:\Program Files (x86)\Exact Audio Copy\Flac\10. The Right Combination.wav

Pre-gap length 0:00:01.58

Peak level 95.6 %
Extraction speed 1.5 X
Track quality 100.0 %
Test CRC 2858E4F2
Copy CRC 2858E4F2
Accurately ripped (confidence 17) [F2D40AA6] (AR v2)
Copy OK

Track 11

Filename C:\Program Files (x86)\Exact Audio Copy\Flac\11. Please Don't Stop Loving Me.wav

Pre-gap length 0:00:01.58

Peak level 98.7 %
Extraction speed 1.3 X
Track quality 99.9 %
Test CRC 0D1FB760
Copy CRC 0D1FB760
Accurately ripped (confidence 17) [93B10BE8] (AR v2)
Copy OK

Track 12

Filename C:\Program Files (x86)\Exact Audio Copy\Flac\12. Together You And I.wav

Pre-gap length 0:00:01.58

Peak level 99.6 %
Extraction speed 1.6 X
Track quality 100.0 %
Test CRC BF5ACD7F
Copy CRC BF5ACD7F
Accurately ripped (confidence 17) [FED0F661] (AR v2)
Copy OK

Track 13

Filename C:\Program Files (x86)\Exact Audio Copy\Flac\13. In The Ghetto.wav

Pre-gap length 0:00:01.58

Peak level 92.5 %
Extraction speed 1.6 X
Track quality 100.0 %
Test CRC DF6970B9
Copy CRC DF6970B9
Accurately ripped (confidence 17) [CBD24593] (AR v2)
Copy OK

Track 14

Filename C:\Program Files (x86)\Exact Audio Copy\Flac\14. Mama Say A Prayer.wav

Pre-gap length 0:00:01.58

Peak level 88.7 %
Extraction speed 1.4 X
Track quality 99.9 %
Test CRC B42FA2B3
Copy CRC B42FA2B3
Accurately ripped (confidence 17) [55DC3E45] (AR v2)
Copy OK

Track 15

Filename C:\Program Files (x86)\Exact Audio Copy\Flac\15. Coat Of Many Colors.wav

Pre-gap length 0:00:01.58

Peak level 99.6 %
Extraction speed 1.5 X
Track quality 99.9 %
Test CRC F4CD6CB0
Copy CRC F4CD6CB0
Accurately ripped (confidence 17) [09A0FF00] (AR v2)
Copy OK

Track 16

Filename C:\Program Files (x86)\Exact Audio Copy\Flac\16. Letter To Heaven.wav

Pre-gap length 0:00:01.58

Peak level 99.6 %
Extraction speed 1.8 X
Track quality 100.0 %
Test CRC 24319287
Copy CRC 24319287
Accurately ripped (confidence 17) [8EE0A83E] (AR v2)
Copy OK

Track 17

Filename C:\Program Files (x86)\Exact Audio Copy\Flac\17. Joshua.wav

Pre-gap length 0:00:01.58

Peak level 89.4 %
Extraction speed 1.9 X
Track quality 100.0 %
Test CRC 5F759568
Copy CRC 5F759568
Accurately ripped (confidence 17) [690DE3F0] (AR v2)
Copy OK

All tracks accurately ripped

No errors occurred

End of status report

---- CUETools DB Plugin V2.1.6

[CTDB TOCID: 9BgyrkklGvBPJOldj0cq.t5yoS8-] found
Submit result: 9BgyrkklGvBPJOldj0cq.t5yoS8- has been confirmed
Track | CTDB Status
1 | (45/45) Accurately ripped
2 | (45/45) Accurately ripped
3 | (45/45) Accurately ripped
4 | (45/45) Accurately ripped
5 | (45/45) Accurately ripped
6 | (45/45) Accurately ripped
7 | (45/45) Accurately ripped
8 | (45/45) Accurately ripped
9 | (45/45) Accurately ripped
10 | (45/45) Accurately ripped
11 | (45/45) Accurately ripped
12 | (45/45) Accurately ripped
13 | (45/45) Accurately ripped
14 | (45/45) Accurately ripped
15 | (45/45) Accurately ripped
16 | (45/45) Accurately ripped
17 | (44/45) Accurately ripped

==== Log checksum 596128E45F0E0C8F59B05D8260E4C0CD0917EAF7EF8404C52D83D2865C25B64D ====

Cue Sheet (.cue):


REM GENRE Country
REM DATE 2013
REM DISCID CA0A8411
REM COMMENT "ExactAudioCopy v1.3"
PERFORMER "Dolly Parton"
TITLE "The Real... Dolly Parton - CD 1"
REM COMPOSER ""
FILE "01. Dumb Blonde.wav" WAVE
TRACK 01 AUDIO
TITLE "Dumb Blonde"
PERFORMER "Dolly Parton"
REM COMPOSER ""
INDEX 01 00:00:00
TRACK 02 AUDIO
TITLE "Just Because I'm A Woman"
PERFORMER "Dolly Parton"
REM COMPOSER ""
INDEX 00 02:28:33
FILE "02. Just Because I'm A Woman.wav" WAVE
INDEX 01 00:00:00
TRACK 03 AUDIO
TITLE "D-I-V-O-R-C-E"
PERFORMER "Dolly Parton"
REM COMPOSER ""
INDEX 00 03:03:58
FILE "03. D-I-V-O-R-C-E.wav" WAVE
INDEX 01 00:00:00
TRACK 04 AUDIO
TITLE "You're Gonna Be Sorry"
PERFORMER "Dolly Parton"
REM COMPOSER ""
INDEX 00 02:43:03
FILE "04. You're Gonna Be Sorry.wav" WAVE
INDEX 01 00:00:00
TRACK 05 AUDIO
TITLE "The Last Thing On My Mind"
PERFORMER "Dolly Parton"
REM COMPOSER ""
INDEX 00 02:13:27
FILE "05. The Last Thing On My Mind.wav" WAVE
INDEX 01 00:00:00
TRACK 06 AUDIO
TITLE "We'll Get Ahead Someday"
PERFORMER "Dolly Parton"
REM COMPOSER ""
INDEX 00 02:34:14
FILE "06. We'll Get Ahead Someday.wav" WAVE
INDEX 01 00:00:00
TRACK 07 AUDIO
TITLE "Jeannie's Afraid Of The Dark"
PERFORMER "Dolly Parton"
REM COMPOSER ""
INDEX 00 01:55:29
FILE "07. Jeannie's Afraid Of The Dark.wav" WAVE
INDEX 01 00:00:00
TRACK 08 AUDIO
TITLE "Yours Love"
PERFORMER "Dolly Parton"
REM COMPOSER ""
INDEX 00 02:46:03
FILE "08. Yours Love.wav" WAVE
INDEX 01 00:00:00
TRACK 09 AUDIO
TITLE "Just Someone I Used To Know"
PERFORMER "Dolly Parton"
REM COMPOSER ""
INDEX 00 02:26:32
FILE "09. Just Someone I Used To Know.wav" WAVE
INDEX 01 00:00:00
TRACK 10 AUDIO
TITLE "The Right Combination"
PERFORMER "Dolly Parton"
REM COMPOSER ""
INDEX 00 02:21:40
FILE "10. The Right Combination.wav" WAVE
INDEX 01 00:00:00
TRACK 11 AUDIO
TITLE "Please Don't Stop Loving Me"
PERFORMER "Dolly Parton"
REM COMPOSER ""
INDEX 00 02:51:52
FILE "11. Please Don't Stop Loving Me.wav" WAVE
INDEX 01 00:00:00
TRACK 12 AUDIO
TITLE "Together You And I"
PERFORMER "Dolly Parton"
REM COMPOSER ""
INDEX 00 02:46:14
FILE "12. Together You And I.wav" WAVE
INDEX 01 00:00:00
TRACK 13 AUDIO
TITLE "In The Ghetto"
PERFORMER "Dolly Parton"
REM COMPOSER ""
INDEX 00 02:15:34
FILE "13. In The Ghetto.wav" WAVE
INDEX 01 00:00:00
TRACK 14 AUDIO
TITLE "Mama Say A Prayer"
PERFORMER "Dolly Parton"
REM COMPOSER ""
INDEX 00 02:43:49
FILE "14. Mama Say A Prayer.wav" WAVE
INDEX 01 00:00:00
TRACK 15 AUDIO
TITLE "Coat Of Many Colors"
PERFORMER "Dolly Parton"
REM COMPOSER ""
INDEX 00 02:44:67
FILE "15. Coat Of Many Colors.wav" WAVE
INDEX 01 00:00:00
TRACK 16 AUDIO
TITLE "Letter To Heaven"
PERFORMER "Dolly Parton"
REM COMPOSER ""
INDEX 00 03:04:11
FILE "16. Letter To Heaven.wav" WAVE
INDEX 01 00:00:00
TRACK 17 AUDIO
TITLE "Joshua"
PERFORMER "Dolly Parton"
REM COMPOSER ""
INDEX 00 02:23:66
FILE "17. Joshua.wav" WAVE
INDEX 01 00:00:00

Отчёт auCDtect Task manager:


-----------------------

DON'T MODIFY THIS FILE

-----------------------

PERFORMER: auCDtect Task Manager, ver. 1.5.1RC4 build 1.5.1.5
Copyright (c) 2008-2010 y-soft. All rights reserved
http://y-soft.org

ANALYZER: auCDtect: CD records authenticity detector, version 0.8.2
Copyright (c) 2004 Oleg Berngardt. All rights reserved.
Copyright (c) 2004 Alexander Djourik. All rights reserved.

FILE: 17. Joshua.flac
Size: 21786677 Hash: F9319D2B6ACF1ACD4FEF65B90E720109 Accuracy: -m0
Conclusion: CDDA 100%
Signature: B84100FD4297035CBA3E9421BA5535A2D1589192
FILE: 16. Letter To Heaven.flac
Size: 14620479 Hash: 9AD85C54048F5BDC13DA1DCA49E826E6 Accuracy: -m0
Conclusion: CDDA 100%
Signature: 537384134B4029C53142028183A636F3C40E2142
FILE: 15. Coat Of Many Colors.flac
Size: 19198207 Hash: 33A3BF4673A3A5C28525F543290A3239 Accuracy: -m0
Conclusion: CDDA 100%
Signature: 56A2401BF13BF7A2CE70DB89DCE764FAB188CD0A
FILE: 14. Mama Say A Prayer.flac
Size: 16826380 Hash: E49AAE1135EED7033E6799860EA88A69 Accuracy: -m0
Conclusion: CDDA 100%
Signature: 138882E38EA3BE19E56FAAE05158195582D16720
FILE: 13. In The Ghetto.flac
Size: 17745117 Hash: 395B34FE76FC113828EEFE84A6AE8618 Accuracy: -m0
Conclusion: CDDA 99%
Signature: DDA1580E48CB2362230D392301401B105E0B110F
FILE: 12. Together You And I.flac
Size: 13237373 Hash: AA2D9D12F0AE19911AE7A8C40148CC09 Accuracy: -m0
Conclusion: CDDA 100%
Signature: 444D38AB066D917012461D9FD6B94C2233754BC9
FILE: 11. Please Don't Stop Loving Me.flac
Size: 17880323 Hash: 4F4A07907392B215DE1F129061400F23 Accuracy: -m0
Conclusion: CDDA 100%
Signature: FD151FB3E00754B812B101B60FCD6128DAF7D06C
FILE: 10. The Right Combination.flac
Size: 16613283 Hash: 55DDABD235F7AB71BD75AD113F528B34 Accuracy: -m0
Conclusion: CDDA 100%
Signature: 02C108E0227970046421990692E730193FCC3484
FILE: 09. Just Someone I Used To Know.flac
Size: 13337264 Hash: 171D633BD6A381EB079696D5F30B0C16 Accuracy: -m0
Conclusion: CDDA 100%
Signature: 7F944047938068B23A3EC707246C916886141235
FILE: 08. Yours Love.flac
Size: 14788973 Hash: 34B43EE134BF7E270FF0A0D06ADC6266 Accuracy: -m0
Conclusion: CDDA 100%
Signature: 2E60706ECCDDC60D97603A242E4E9F3691D22E9D
FILE: 07. Jeannie's Afraid Of The Dark.flac
Size: 17104902 Hash: 1C13AE4755969F7E3C90EB51A7A2A829 Accuracy: -m0
Conclusion: CDDA 100%
Signature: 56EA4C05F54B6B212324116BEBE922DBA8918893
FILE: 06. We'll Get Ahead Someday.flac
Size: 11414378 Hash: 62D75D2B0DFB4AE0FC5D64249C1EFB17 Accuracy: -m0
Conclusion: CDDA 100%
Signature: A2DB5A9FB4FB93CFC5DFF5469A9C6A12FC26EDD8
FILE: 05. The Last Thing On My Mind.flac
Size: 15999774 Hash: 9B30F61B34C0418F59A02B680B53CFD9 Accuracy: -m0
Conclusion: CDDA 100%
Signature: 932F98EEAD0D4FE19368628C91A85FF149590A75
FILE: 04. You're Gonna Be Sorry.flac
Size: 14146976 Hash: 118D2807E1E54EBF66EB6A0FABD96499 Accuracy: -m0
Conclusion: CDDA 100%
Signature: 3C630421F6799EEE4DAFE4153EBAAD29BCB3FEAB
FILE: 03. D-I-V-O-R-C-E.flac
Size: 16832247 Hash: 974D90CD7724A6D6D8FBA667FDE76B14 Accuracy: -m0
Conclusion: CDDA 100%
Signature: 01D2B70D65F06A2FA5B6AFF242CEFCC0A0DF24D9
FILE: 02. Just Because I'm A Woman.flac
Size: 19499876 Hash: 91973248F09894FCEC3BBB476B65D8A2 Accuracy: -m0
Conclusion: CDDA 100%
Signature: 1C3F8CF2635A3B58E3573582E8A63885286DF63D
FILE: 01. Dumb Blonde.flac
Size: 16405859 Hash: 1C64218561D15754EB8C761B8CE06191 Accuracy: -m0
Conclusion: CDDA 100%
Signature: C33AC9606A901712CCD53E81E35542C0E3C01E4A

Disc 2

Трeклист:
01. Jolene
02. Love Is Like A Butterfly
03. Lonely Comin' Down
04. My Tennessee Mountain Home
05. The Bargain Store
06. My Blue Tears
07. Applejack
08. Touch Your Woman
09. The Seeker
10. Bobby's Arms
11. We Used To
12. Hey, Lucky Lady
13. Two Doors Down
14. Baby I'm Burnin'
15. I Really Got The Feeling
16. You're The Only One
17. Starting over Again
18. Lovin' You
19. Here You Come Again
Прoдолжительность: 00:55:13

Отчёт EAC:


Exact Audio Copy V1.3 from 2. September 2016

EAC extraction logfile from 7. July 2017, 18:53

Dolly Parton / The Real... Dolly Parton - CD 2

Used drive : TSSTcorpCDDVDW SE-208AB Adapter: 2 ID: 0

Read mode : Secure
Utilize accurate stream : Yes
Defeat audio cache : Yes
Make use of C2 pointers : No

Read offset correction : 6
Overread into Lead-In and Lead-Out : No
Fill up missing offset samples with silence : Yes
Delete leading and trailing silent blocks : No
Null samples used in CRC calculations : Yes
Used interface : Installed external ASPI interface
Gap handling : Appended to previous track

Used output format : User Defined Encoder
Selected bitrate : 768 kBit/s
Quality : High
Add ID3 tag : No
Command line compressor : C:\Program Files (x86)\Exact Audio Copy\Flac\flac.exe
Additional command line options : -8 -V -T "ARTIST=%artist%" -T "TITLE=%title%" -T "ALBUM=%albumtitle%" -T "DATE=%year%" -T "TRACKNUMBER=%tracknr%" -T "GENRE=%genre%" -T "COMMENT=%comment%" -T "BAND=%albuminterpret%" -T "ALBUMARTIST=%albuminterpret%" -T "COMPOSER=%composer%" %haslyrics%--tag-from-file=LYRICS="%lyricsfile%"%haslyrics% -T "DISCNUMBER=%cdnumber%" -T "TOTALDISCS=%totalcds%" -T "TOTALTRACKS=%numtracks%" %hascover%--picture="%coverfile%"%hascover% %source% -o %dest%

TOC of the extracted CD

Track | Start | Length | Start sector | End sector
---------------------------------------------------------
1 | 0:00.00 | 2:41.63 | 0 | 12137
2 | 2:41.63 | 2:21.32 | 12138 | 22744
3 | 5:03.20 | 3:10.49 | 22745 | 37043
4 | 8:13.69 | 3:08.61 | 37044 | 51204
5 | 11:22.55 | 2:42.72 | 51205 | 63426
6 | 14:05.52 | 2:16.32 | 63427 | 73658
7 | 16:22.09 | 3:25.32 | 73659 | 89065
8 | 19:47.41 | 2:41.22 | 89066 | 101162
9 | 22:28.63 | 3:02.15 | 101163 | 114827
10 | 25:31.03 | 2:40.39 | 114828 | 126866
11 | 28:11.42 | 3:13.06 | 126867 | 141347
12 | 31:24.48 | 2:22.56 | 141348 | 152053
13 | 33:47.29 | 3:05.50 | 152054 | 165978
14 | 36:53.04 | 2:38.27 | 165979 | 177855
15 | 39:31.31 | 3:08.44 | 177856 | 191999
16 | 42:40.00 | 3:18.14 | 192000 | 206863
17 | 45:58.14 | 3:57.74 | 206864 | 224712
18 | 49:56.13 | 2:21.54 | 224713 | 235341
19 | 52:17.67 | 2:55.33 | 235342 | 248499

Track 1

Filename C:\Program Files (x86)\Exact Audio Copy\Flac\01. Jolene.wav

Pre-gap length 0:00:02.00

Peak level 99.6 %
Extraction speed 1.0 X
Track quality 100.0 %
Test CRC 9BEB2FA8
Copy CRC 9BEB2FA8
Accurately ripped (confidence 17) [5AEB94C3] (AR v2)
Copy OK

Track 2

Filename C:\Program Files (x86)\Exact Audio Copy\Flac\02. Love Is Like A Butterfly.wav

Pre-gap length 0:00:01.58

Peak level 99.6 %
Extraction speed 0.9 X
Track quality 99.9 %
Test CRC F8EEF937
Copy CRC F8EEF937
Accurately ripped (confidence 17) [FEE58B6A] (AR v2)
Copy OK

Track 3

Filename C:\Program Files (x86)\Exact Audio Copy\Flac\03. Lonely Comin' Down.wav

Pre-gap length 0:00:01.58

Peak level 99.0 %
Extraction speed 1.2 X
Track quality 100.0 %
Test CRC 48099EAA
Copy CRC 48099EAA
Accurately ripped (confidence 17) [C9C0F6DD] (AR v2)
Copy OK

Track 4

Filename C:\Program Files (x86)\Exact Audio Copy\Flac\04. My Tennessee Mountain Home.wav

Pre-gap length 0:00:01.58

Peak level 94.8 %
Extraction speed 1.3 X
Track quality 100.0 %
Test CRC DCF9233C
Copy CRC DCF9233C
Accurately ripped (confidence 17) [A04B0EB5] (AR v2)
Copy OK

Track 5

Filename C:\Program Files (x86)\Exact Audio Copy\Flac\05. The Bargain Store.wav

Pre-gap length 0:00:01.58

Peak level 99.6 %
Extraction speed 1.3 X
Track quality 100.0 %
Test CRC D95589B1
Copy CRC D95589B1
Accurately ripped (confidence 17) [172F7893] (AR v2)
Copy OK

Track 6

Filename C:\Program Files (x86)\Exact Audio Copy\Flac\06. My Blue Tears.wav

Pre-gap length 0:00:01.58

Peak level 98.8 %
Extraction speed 1.1 X
Track quality 99.9 %
Test CRC 6C48E911
Copy CRC 6C48E911
Accurately ripped (confidence 17) [2067CAED] (AR v2)
Copy OK

Track 7

Filename C:\Program Files (x86)\Exact Audio Copy\Flac\07. Applejack.wav

Pre-gap length 0:00:01.58

Peak level 99.6 %
Extraction speed 1.5 X
Track quality 100.0 %
Test CRC 080AF9B5
Copy CRC 080AF9B5
Accurately ripped (confidence 17) [F7FB75B3] (AR v2)
Copy OK

Track 8

Filename C:\Program Files (x86)\Exact Audio Copy\Flac\08. Touch Your Woman.wav

Pre-gap length 0:00:01.58

Peak level 99.6 %
Extraction speed 1.5 X
Track quality 100.0 %
Test CRC 6BFB93D9
Copy CRC 6BFB93D9
Accurately ripped (confidence 17) [65753A8C] (AR v2)
Copy OK

Track 9

Filename C:\Program Files (x86)\Exact Audio Copy\Flac\09. The Seeker.wav

Pre-gap length 0:00:01.58

Peak level 99.6 %
Extraction speed 1.6 X
Track quality 100.0 %
Test CRC 39779C4C
Copy CRC 39779C4C
Accurately ripped (confidence 17) [161CC3B1] (AR v2)
Copy OK

Track 10

Filename C:\Program Files (x86)\Exact Audio Copy\Flac\10. Bobby's Arms.wav

Pre-gap length 0:00:01.58

Peak level 99.6 %
Extraction speed 1.6 X
Track quality 100.0 %
Test CRC F402E5A5
Copy CRC F402E5A5
Accurately ripped (confidence 17) [1A23F8E5] (AR v2)
Copy OK

Track 11

Filename C:\Program Files (x86)\Exact Audio Copy\Flac\11. We Used To.wav

Pre-gap length 0:00:01.58

Peak level 99.6 %
Extraction speed 1.7 X
Track quality 100.0 %
Test CRC FD4A2EEF
Copy CRC FD4A2EEF
Accurately ripped (confidence 17) [6F98C64B] (AR v2)
Copy OK

Track 12

Filename C:\Program Files (x86)\Exact Audio Copy\Flac\12. Hey, Lucky Lady.wav

Pre-gap length 0:00:01.52

Peak level 99.6 %
Extraction speed 1.4 X
Track quality 99.9 %
Test CRC EA4A3BA5
Copy CRC EA4A3BA5
Accurately ripped (confidence 17) [CF871ECC] (AR v2)
Copy OK

Track 13

Filename C:\Program Files (x86)\Exact Audio Copy\Flac\13. Two Doors Down.wav

Pre-gap length 0:00:01.58

Peak level 94.3 %
Extraction speed 1.2 X
Track quality 100.0 %
Test CRC B7F9663B
Copy CRC B7F9663B
Accurately ripped (confidence 17) [E9E7F652] (AR v2)
Copy OK

Track 14

Filename C:\Program Files (x86)\Exact Audio Copy\Flac\14. Baby I'm Burnin'.wav

Pre-gap length 0:00:01.58

Peak level 88.6 %
Extraction speed 1.5 X
Track quality 99.9 %
Test CRC 2FF630E2
Copy CRC 2FF630E2
Accurately ripped (confidence 17) [34308695] (AR v2)
Copy OK

Track 15

Filename C:\Program Files (x86)\Exact Audio Copy\Flac\15. I Really Got The Feeling.wav

Pre-gap length 0:00:01.58

Peak level 99.0 %
Extraction speed 1.6 X
Track quality 99.9 %
Test CRC B5920510
Copy CRC B5920510
Accurately ripped (confidence 17) [EC927FF2] (AR v2)
Copy OK

Track 16

Filename C:\Program Files (x86)\Exact Audio Copy\Flac\16. You're The Only One.wav

Pre-gap length 0:00:01.58

Peak level 99.6 %
Extraction speed 1.7 X
Track quality 99.9 %
Test CRC 92956F76
Copy CRC 92956F76
Accurately ripped (confidence 17) [FB9E5976] (AR v2)
Copy OK

Track 17

Filename C:\Program Files (x86)\Exact Audio Copy\Flac\17. Starting Over Again.wav

Pre-gap length 0:00:01.58

Peak level 99.6 %
Extraction speed 2.1 X
Track quality 100.0 %
Test CRC 2B476631
Copy CRC 2B476631
Accurately ripped (confidence 17) [FE4B4B92] (AR v2)
Copy OK

Track 18

Filename C:\Program Files (x86)\Exact Audio Copy\Flac\18. Lovin' You.wav

Pre-gap length 0:00:01.58

Peak level 94.8 %
Extraction speed 1.6 X
Track quality 99.9 %
Test CRC 1862C03C
Copy CRC 1862C03C
Accurately ripped (confidence 17) [E2757279] (AR v2)
Copy OK

Track 19

Filename C:\Program Files (x86)\Exact Audio Copy\Flac\19. Here You Come Again.wav

Pre-gap length 0:00:01.58

Peak level 99.6 %
Extraction speed 2.1 X
Track quality 100.0 %
Test CRC AB23C579
Copy CRC AB23C579
Accurately ripped (confidence 17) [E5D87FBF] (AR v2)
Copy OK

All tracks accurately ripped

No errors occurred

End of status report

---- CUETools DB Plugin V2.1.6

[CTDB TOCID: oNoHhASu8hqzUmFdjT2zTA0Ad7k-] found
Submit result: oNoHhASu8hqzUmFdjT2zTA0Ad7k- has been confirmed
Track | CTDB Status
1 | (41/41) Accurately ripped
2 | (41/41) Accurately ripped
3 | (41/41) Accurately ripped
4 | (41/41) Accurately ripped
5 | (41/41) Accurately ripped
6 | (41/41) Accurately ripped
7 | (41/41) Accurately ripped
8 | (41/41) Accurately ripped
9 | (41/41) Accurately ripped
10 | (41/41) Accurately ripped
11 | (41/41) Accurately ripped
12 | (41/41) Accurately ripped
13 | (41/41) Accurately ripped
14 | (41/41) Accurately ripped
15 | (41/41) Accurately ripped
16 | (41/41) Accurately ripped
17 | (41/41) Accurately ripped
18 | (41/41) Accurately ripped
19 | (41/41) Accurately ripped

==== Log checksum 58B21302083FA745947E112FA7037349EE9297DE2491989E03DFE1DAC7C57143 ====

Cue Sheet (.cue):


REM GENRE Country
REM DATE 2013
REM DISCID 230CF113
REM COMMENT "ExactAudioCopy v1.3"
PERFORMER "Dolly Parton"
TITLE "The Real... Dolly Parton - CD 2"
REM COMPOSER ""
FILE "01. Jolene.wav" WAVE
TRACK 01 AUDIO
TITLE "Jolene"
PERFORMER "Dolly Parton"
REM COMPOSER ""
INDEX 01 00:00:00
TRACK 02 AUDIO
TITLE "Love Is Like A Butterfly"
PERFORMER "Dolly Parton"
REM COMPOSER ""
INDEX 00 02:40:05
FILE "02. Love Is Like A Butterfly.wav" WAVE
INDEX 01 00:00:00
TRACK 03 AUDIO
TITLE "Lonely Comin' Down"
PERFORMER "Dolly Parton"
REM COMPOSER ""
INDEX 00 02:19:49
FILE "03. Lonely Comin' Down.wav" WAVE
INDEX 01 00:00:00
TRACK 04 AUDIO
TITLE "My Tennessee Mountain Home"
PERFORMER "Dolly Parton"
REM COMPOSER ""
INDEX 00 03:08:66
FILE "04. My Tennessee Mountain Home.wav" WAVE
INDEX 01 00:00:00
TRACK 05 AUDIO
TITLE "The Bargain Store"
PERFORMER "Dolly Parton"
REM COMPOSER ""
INDEX 00 03:07:03
FILE "05. The Bargain Store.wav" WAVE
INDEX 01 00:00:00
TRACK 06 AUDIO
TITLE "My Blue Tears"
PERFORMER "Dolly Parton"
REM COMPOSER ""
INDEX 00 02:41:14
FILE "06. My Blue Tears.wav" WAVE
INDEX 01 00:00:00
TRACK 07 AUDIO
TITLE "Applejack"
PERFORMER "Dolly Parton"
REM COMPOSER ""
INDEX 00 02:14:49
FILE "07. Applejack.wav" WAVE
INDEX 01 00:00:00
TRACK 08 AUDIO
TITLE "Touch Your Woman"
PERFORMER "Dolly Parton"
REM COMPOSER ""
INDEX 00 03:23:49
FILE "08. Touch Your Woman.wav" WAVE
INDEX 01 00:00:00
TRACK 09 AUDIO
TITLE "The Seeker"
PERFORMER "Dolly Parton"
REM COMPOSER ""
INDEX 00 02:39:39
FILE "09. The Seeker.wav" WAVE
INDEX 01 00:00:00
TRACK 10 AUDIO
TITLE "Bobby's Arms"
PERFORMER "Dolly Parton"
REM COMPOSER ""
INDEX 00 03:00:32
FILE "10. Bobby's Arms.wav" WAVE
INDEX 01 00:00:00
TRACK 11 AUDIO
TITLE "We Used To"
PERFORMER "Dolly Parton"
REM COMPOSER ""
INDEX 00 02:38:56
FILE "11. We Used To.wav" WAVE
INDEX 01 00:00:00
TRACK 12 AUDIO
TITLE "Hey, Lucky Lady"
PERFORMER "Dolly Parton"
REM COMPOSER ""
INDEX 00 03:11:29
FILE "12. Hey, Lucky Lady.wav" WAVE
INDEX 01 00:00:00
TRACK 13 AUDIO
TITLE "Two Doors Down"
PERFORMER "Dolly Parton"
REM COMPOSER ""
INDEX 00 02:20:73
FILE "13. Two Doors Down.wav" WAVE
INDEX 01 00:00:00
TRACK 14 AUDIO
TITLE "Baby I'm Burnin'"
PERFORMER "Dolly Parton"
REM COMPOSER ""
INDEX 00 03:03:67
FILE "14. Baby I'm Burnin'.wav" WAVE
INDEX 01 00:00:00
TRACK 15 AUDIO
TITLE "I Really Got The Feeling"
PERFORMER "Dolly Parton"
REM COMPOSER ""
INDEX 00 02:36:44
FILE "15. I Really Got The Feeling.wav" WAVE
INDEX 01 00:00:00
TRACK 16 AUDIO
TITLE "You're The Only One"
PERFORMER "Dolly Parton"
REM COMPOSER ""
INDEX 00 03:06:61
FILE "16. You're The Only One.wav" WAVE
INDEX 01 00:00:00
TRACK 17 AUDIO
TITLE "Starting Over Again"
PERFORMER "Dolly Parton"
REM COMPOSER ""
INDEX 00 03:16:31
FILE "17. Starting Over Again.wav" WAVE
INDEX 01 00:00:00
TRACK 18 AUDIO
TITLE "Lovin' You"
PERFORMER "Dolly Parton"
REM COMPOSER ""
INDEX 00 03:56:16
FILE "18. Lovin' You.wav" WAVE
INDEX 01 00:00:00
TRACK 19 AUDIO
TITLE "Here You Come Again"
PERFORMER "Dolly Parton"
REM COMPOSER ""
INDEX 00 02:19:71
FILE "19. Here You Come Again.wav" WAVE
INDEX 01 00:00:00

Отчёт auCDtect Task manager:


-----------------------

DON'T MODIFY THIS FILE

-----------------------

PERFORMER: auCDtect Task Manager, ver. 1.5.1RC4 build 1.5.1.5
Copyright (c) 2008-2010 y-soft. All rights reserved
http://y-soft.org

ANALYZER: auCDtect: CD records authenticity detector, version 0.8.2
Copyright (c) 2004 Oleg Berngardt. All rights reserved.
Copyright (c) 2004 Alexander Djourik. All rights reserved.

FILE: 19. Here You Come Again.flac
Size: 19430752 Hash: 6ABEA775753612AE8CAD68C515877D97 Accuracy: -m0
Conclusion: CDDA 100%
Signature: CBFC682DB132FDACC67D7DF21785D580FCD4564B
FILE: 18. Lovin' You.flac
Size: 15386390 Hash: D065CD0FDDB643F5FE3EBEAB3FF5C335 Accuracy: -m0
Conclusion: MPEG 95%
Signature: 491E176FA0F0E1AC9359B58A770EA820FB50B52F
FILE: 17. Starting Over Again.flac
Size: 21484284 Hash: 5B732497F6BE905050CE96CE5A8BDC69 Accuracy: -m0
Conclusion: CDDA 100%
Signature: E1D2E67C2B4F2DA943BF63F36886386DAE9EE373
FILE: 16. You're The Only One.flac
Size: 20715975 Hash: E48904C74864982F8A0AA78798970CDA Accuracy: -m0
Conclusion: CDDA 100%
Signature: 44C0F5B1EBA995F0FE126FD301B4F8D5A4A833C5
FILE: 15. I Really Got The Feeling.flac
Size: 18391722 Hash: 3D11A24325BEA8187D3C19D9EF78ED7F Accuracy: -m0
Conclusion: CDDA 100%
Signature: 0D3C26271A2B85E60C431E322073D426AFA9DD22
FILE: 14. Baby I'm Burnin'.flac
Size: 18255684 Hash: EBF4EEDAB6F80D817EA8CC410FD495BE Accuracy: -m0
Conclusion: CDDA 100%
Signature: A6D80F32DA458DAFF560D8E17DFF311FD308D633
FILE: 13. Two Doors Down.flac
Size: 20248554 Hash: C01656E4A714A36B8678ACA7ABC40BFD Accuracy: -m0
Conclusion: CDDA 100%
Signature: D376D81816ACD7F3F56A998899A367762FFD900D
FILE: 12. Hey, Lucky Lady.flac
Size: 15204511 Hash: C08C1CD12FA6D83B8FD7A2D2113A8B39 Accuracy: -m0
Conclusion: CDDA 100%
Signature: CBAB56AF7BA00B92B5A8EEC265602D3BF513ACFA
FILE: 11. We Used To.flac
Size: 18774610 Hash: 245F5E62F21B6109B523158BF11FFC23 Accuracy: -m0
Conclusion: CDDA 99%
Signature: 0B981B8C95D7FF8B91BCD05E823662D759603A34
FILE: 10. Bobby's Arms.flac
Size: 15465881 Hash: E9CC7E14EF3B169AA2CE95CD90628215 Accuracy: -m0
Conclusion: CDDA 100%
Signature: BCDA18D5999334DCD100562BF36C7F9C0742EA52
FILE: 09. The Seeker.flac
Size: 17998854 Hash: 508426F35CBC8CDF980ED94584C3B83E Accuracy: -m0
Conclusion: CDDA 100%
Signature: C6723735E29AF6AD19B805A54C09AFF18D5CF58A
FILE: 08. Touch Your Woman.flac
Size: 16100171 Hash: F38F45669477F8D4BE9C53A8963D613F Accuracy: -m0
Conclusion: CDDA 100%
Signature: 4667C828DB7CE8F2DAD3A242EAB232916E258512
FILE: 07. Applejack.flac
Size: 23958198 Hash: 3C1D1D6F1778500A51BF7B9F462D500F Accuracy: -m0
Conclusion: CDDA 99%
Signature: 75C6F96C1A75F72C17718ECDDC3AFD677684D4A2
FILE: 06. My Blue Tears.flac
Size: 15309406 Hash: F9B08F2E638B08FBA2962E710CC1053E Accuracy: -m0
Conclusion: CDDA 100%
Signature: B62D88240C4843A2AB3D738E0F0D4CF9B3CB9992
FILE: 05. The Bargain Store.flac
Size: 16535727 Hash: 62A402E6A5B991BFD6FF41926702721F Accuracy: -m0
Conclusion: CDDA 100%
Signature: FA956F88640B450C685262FFB562377AF55DA2F5
FILE: 04. My Tennessee Mountain Home.flac
Size: 19279249 Hash: D0E556F98B9BD5CD5078DA76525049BB Accuracy: -m0
Conclusion: CDDA 100%
Signature: 25CE149C1EE40E482781140FB47F24E7701BE2EF
FILE: 03. Lonely Comin' Down.flac
Size: 17746726 Hash: DB994E54EFFD7E5850DDE86D8EA31BC3 Accuracy: -m0
Conclusion: CDDA 99%
Signature: 8DC25A53F6D6E26E177308599BC5CB39E8D20CA6
FILE: 02. Love Is Like A Butterfly.flac
Size: 14890863 Hash: D3272C8C808D62F5258C1CA4DB3BD3B4 Accuracy: -m0
Conclusion: CDDA 100%
Signature: 2953E501D9884D18827E7A686CB910D2861AB863
FILE: 01. Jolene.flac
Size: 17130495 Hash: 5C9A50A04BDC0B75D0B34BFA75D77AF2 Accuracy: -m0
Conclusion: CDDA 99%
Signature: 5B75F1635209DAE80EE6F04E0C1F28AC75AEBA0F

Спектрограмма:



Disc 3

Трeклист:
01. Islands In The Stream
02. 9 To 5
03. I Will Always Love You
04. The House Of The Rising Sun
05. Working Girl
06. Single Women
07. Heartbreak Express
08. Tennessee Homesick Blues
09. Save The Last Dance For Me
10. Don't Call It Love
11. Yellow Roses
12. Do I Ever Cross Your Mind
13. Rockin' Years
14. Romeo
15. It Wasn't God Who Made Honky Tonk Angels
16. Silver Threads And Golden Needles
17. Wings Of A Dove
18. Why'd You Come In Here Lookin' Like That
19. More Where That Came From
Прoдолжительность: 01:03:22

Отчёт EAC:


Exact Audio Copy V1.3 from 2. September 2016

EAC extraction logfile from 7. July 2017, 20:20

Dolly Parton / The Real... Dolly Parton - CD 3

Used drive : TSSTcorpCDDVDW SE-208AB Adapter: 2 ID: 0

Read mode : Secure
Utilize accurate stream : Yes
Defeat audio cache : Yes
Make use of C2 pointers : No

Read offset correction : 6
Overread into Lead-In and Lead-Out : No
Fill up missing offset samples with silence : Yes
Delete leading and trailing silent blocks : No
Null samples used in CRC calculations : Yes
Used interface : Installed external ASPI interface
Gap handling : Appended to previous track

Used output format : User Defined Encoder
Selected bitrate : 768 kBit/s
Quality : High
Add ID3 tag : No
Command line compressor : C:\Program Files (x86)\Exact Audio Copy\Flac\flac.exe
Additional command line options : -8 -V -T "ARTIST=%artist%" -T "TITLE=%title%" -T "ALBUM=%albumtitle%" -T "DATE=%year%" -T "TRACKNUMBER=%tracknr%" -T "GENRE=%genre%" -T "COMMENT=%comment%" -T "BAND=%albuminterpret%" -T "ALBUMARTIST=%albuminterpret%" -T "COMPOSER=%composer%" %haslyrics%--tag-from-file=LYRICS="%lyricsfile%"%haslyrics% -T "DISCNUMBER=%cdnumber%" -T "TOTALDISCS=%totalcds%" -T "TOTALTRACKS=%numtracks%" %hascover%--picture="%coverfile%"%hascover% %source% -o %dest%

TOC of the extracted CD

Track | Start | Length | Start sector | End sector
---------------------------------------------------------
1 | 0:00.00 | 4:11.32 | 0 | 18856
2 | 4:11.32 | 2:45.61 | 18857 | 31292
3 | 6:57.18 | 2:55.18 | 31293 | 44435
4 | 9:52.36 | 4:01.30 | 44436 | 62540
5 | 13:53.66 | 3:16.44 | 62541 | 77284
6 | 17:10.35 | 3:44.18 | 77285 | 94102
7 | 20:54.53 | 3:13.47 | 94103 | 108624
8 | 24:08.25 | 3:24.62 | 108625 | 123986
9 | 27:33.12 | 3:50.44 | 123987 | 141280
10 | 31:23.56 | 3:16.67 | 141281 | 156047
11 | 34:40.48 | 3:56.12 | 156048 | 173759
12 | 38:36.60 | 4:02.12 | 173760 | 191921
13 | 42:38.72 | 3:27.11 | 191922 | 207457
14 | 46:06.08 | 3:34.70 | 207458 | 223577
15 | 49:41.03 | 2:52.41 | 223578 | 236518
16 | 52:33.44 | 2:24.70 | 236519 | 247388
17 | 54:58.39 | 2:35.04 | 247389 | 259017
18 | 57:33.43 | 2:33.45 | 259018 | 270537
19 | 60:07.13 | 3:15.46 | 270538 | 285208

Track 1

Filename C:\Program Files (x86)\Exact Audio Copy\Flac\01. Islands In The Stream (with Kenny Rogers).wav

Pre-gap length 0:00:02.00

Peak level 99.6 %
Extraction speed 1.2 X
Track quality 100.0 %
Test CRC 6F0CE509
Copy CRC 6F0CE509
Accurately ripped (confidence 18) [96D21618] (AR v2)
Copy OK

Track 2

Filename C:\Program Files (x86)\Exact Audio Copy\Flac\02. 9 To 5.wav

Pre-gap length 0:00:01.58

Peak level 73.1 %
Extraction speed 1.3 X
Track quality 100.0 %
Test CRC 3175C184
Copy CRC 3175C184
Accurately ripped (confidence 18) [E1242C88] (AR v2)
Copy OK

Track 3

Filename C:\Program Files (x86)\Exact Audio Copy\Flac\03. I Will Always Love You.wav

Pre-gap length 0:00:01.58

Peak level 99.6 %
Extraction speed 1.3 X
Track quality 100.0 %
Test CRC 07B7B56C
Copy CRC 07B7B56C
Accurately ripped (confidence 18) [15CC79C3] (AR v2)
Copy OK

Track 4

Filename C:\Program Files (x86)\Exact Audio Copy\Flac\04. The House Of The Rising Sun.wav

Pre-gap length 0:00:01.58

Peak level 83.1 %
Extraction speed 1.5 X
Track quality 100.0 %
Test CRC E2F4393C
Copy CRC E2F4393C
Accurately ripped (confidence 18) [004481D0] (AR v2)
Copy OK

Track 5

Filename C:\Program Files (x86)\Exact Audio Copy\Flac\05. Working Girl.wav

Pre-gap length 0:00:01.58

Peak level 86.1 %
Extraction speed 1.5 X
Track quality 100.0 %
Test CRC 9C3ADB24
Copy CRC 9C3ADB24
Accurately ripped (confidence 18) [400DF23C] (AR v2)
Copy OK

Track 6

Filename C:\Program Files (x86)\Exact Audio Copy\Flac\06. Single Woman.wav

Pre-gap length 0:00:01.58

Peak level 99.6 %
Extraction speed 1.6 X
Track quality 100.0 %
Test CRC 9318B241
Copy CRC 9318B241
Accurately ripped (confidence 18) [EDC28565] (AR v2)
Copy OK

Track 7

Filename C:\Program Files (x86)\Exact Audio Copy\Flac\07. Heartbreak Express.wav

Pre-gap length 0:00:01.58

Peak level 99.6 %
Extraction speed 1.7 X
Track quality 100.0 %
Test CRC 30EFD2C3
Copy CRC 30EFD2C3
Accurately ripped (confidence 18) [C6E3B38B] (AR v2)
Copy OK

Track 8

Filename C:\Program Files (x86)\Exact Audio Copy\Flac\08. Tennessee Homesick Blues.wav

Pre-gap length 0:00:01.58

Peak level 99.6 %
Extraction speed 1.5 X
Track quality 99.9 %
Test CRC 4BB20C28
Copy CRC 4BB20C28
Accurately ripped (confidence 18) [7D4C45B5] (AR v2)
Copy OK

Track 9

Filename C:\Program Files (x86)\Exact Audio Copy\Flac\09. Save The Last Dance For Me.wav

Pre-gap length 0:00:01.58

Peak level 99.6 %
Extraction speed 1.9 X
Track quality 100.0 %
Test CRC AAFAA92B
Copy CRC AAFAA92B
Accurately ripped (confidence 18) [51D898C3] (AR v2)
Copy OK

Track 10

Filename C:\Program Files (x86)\Exact Audio Copy\Flac\10. Don't Call It Love.wav

Pre-gap length 0:00:01.58

Peak level 99.6 %
Extraction speed 1.6 X
Track quality 99.9 %
Test CRC 785F4CB6
Copy CRC 785F4CB6
Accurately ripped (confidence 18) [4085CDAE] (AR v2)
Copy OK

Track 11

Filename C:\Program Files (x86)\Exact Audio Copy\Flac\11. Yellow Roses.wav

Pre-gap length 0:00:01.58

Peak level 99.6 %
Extraction speed 2.0 X
Track quality 100.0 %
Test CRC 4E9F3F25
Copy CRC 4E9F3F25
Accurately ripped (confidence 18) [DD6FA678] (AR v2)
Copy OK

Track 12

Filename C:\Program Files (x86)\Exact Audio Copy\Flac\12. Do I Ever Cross Your Mind.wav

Pre-gap length 0:00:01.58

Peak level 99.6 %
Extraction speed 2.1 X
Track quality 100.0 %
Test CRC 17722357
Copy CRC 17722357
Accurately ripped (confidence 18) [65928CFE] (AR v2)
Copy OK

Track 13

Filename C:\Program Files (x86)\Exact Audio Copy\Flac\13. Rockin' Years (Duet With Ricky Van Shelton).wav

Pre-gap length 0:00:01.58

Peak level 99.6 %
Extraction speed 1.8 X
Track quality 99.9 %
Test CRC 2E110C3E
Copy CRC 2E110C3E
Accurately ripped (confidence 18) [C2AB1670] (AR v2)
Copy OK

Track 14

Filename C:\Program Files (x86)\Exact Audio Copy\Flac\14. Romeo.wav

Pre-gap length 0:00:01.58

Peak level 99.6 %
Extraction speed 2.2 X
Track quality 100.0 %
Test CRC F740487B
Copy CRC F740487B
Accurately ripped (confidence 18) [35901CA2] (AR v2)
Copy OK

Track 15

Filename C:\Program Files (x86)\Exact Audio Copy\Flac\15. It Wasn't God Who Made Honky Tonk Angels.wav

Pre-gap length 0:00:01.58

Peak level 98.7 %
Extraction speed 2.1 X
Track quality 100.0 %
Test CRC 09A772C8
Copy CRC 09A772C8
Accurately ripped (confidence 18) [DA1BA496] (AR v2)
Copy OK

Track 16

Filename C:\Program Files (x86)\Exact Audio Copy\Flac\16. Silver Threads And Golden Needles.wav

Pre-gap length 0:00:01.58

Peak level 90.5 %
Extraction speed 2.1 X
Track quality 100.0 %
Test CRC 9404947C
Copy CRC 9404947C
Accurately ripped (confidence 18) [1A6506CA] (AR v2)
Copy OK

Track 17

Filename C:\Program Files (x86)\Exact Audio Copy\Flac\17. Wings Of A Dove.wav

Pre-gap length 0:00:01.58

Peak level 99.6 %
Extraction speed 1.8 X
Track quality 99.9 %
Test CRC DD91508B
Copy CRC DD91508B
Accurately ripped (confidence 18) [720CBBDD] (AR v2)
Copy OK

Track 18

Filename C:\Program Files (x86)\Exact Audio Copy\Flac\18. Why'd You Come In Here Lookin' Like That.wav

Pre-gap length 0:00:01.58

Peak level 99.6 %
Extraction speed 2.2 X
Track quality 100.0 %
Test CRC 676472AE
Copy CRC 676472AE
Accurately ripped (confidence 17) [4A574C86] (AR v2)
Copy OK

Track 19

Filename C:\Program Files (x86)\Exact Audio Copy\Flac\19. More Where That Came From.wav

Pre-gap length 0:00:01.58

Peak level 85.9 %
Extraction speed 2.3 X
Track quality 100.0 %
Test CRC 7BD96209
Copy CRC 7BD96209
Accurately ripped (confidence 17) [1676AD10] (AR v2)
Copy OK

All tracks accurately ripped

No errors occurred

End of status report

---- CUETools DB Plugin V2.1.6

[CTDB TOCID: Tx.DUmCOowJA3SSn5XqbcdhdXEo-] found
Submit result: Tx.DUmCOowJA3SSn5XqbcdhdXEo- has been confirmed
Track | CTDB Status
1 | (44/44) Accurately ripped
2 | (44/44) Accurately ripped
3 | (44/44) Accurately ripped
4 | (44/44) Accurately ripped
5 | (44/44) Accurately ripped
6 | (44/44) Accurately ripped
7 | (44/44) Accurately ripped
8 | (44/44) Accurately ripped
9 | (44/44) Accurately ripped
10 | (44/44) Accurately ripped
11 | (44/44) Accurately ripped
12 | (44/44) Accurately ripped
13 | (44/44) Accurately ripped
14 | (44/44) Accurately ripped
15 | (44/44) Accurately ripped
16 | (44/44) Accurately ripped
17 | (44/44) Accurately ripped
18 | (44/44) Accurately ripped
19 | (44/44) Accurately ripped

==== Log checksum 698AAFB789A6BA956B984E08417F4B67CA665CA18A0AE090D62DAF137413457A ====

Cue Sheet (.cue):


REM GENRE Country
REM DATE 2013
REM DISCID 0D0EDA13
REM COMMENT "ExactAudioCopy v1.3"
PERFORMER "Dolly Parton"
TITLE "The Real... Dolly Parton - CD 3"
REM COMPOSER ""
FILE "01. Islands In The Stream (with Kenny Rogers).wav" WAVE
TRACK 01 AUDIO
TITLE "Islands In The Stream (with Kenny Rogers)"
PERFORMER "Dolly Parton"
REM COMPOSER ""
INDEX 01 00:00:00
TRACK 02 AUDIO
TITLE "9 To 5"
PERFORMER "Dolly Parton"
REM COMPOSER ""
INDEX 00 04:09:49
FILE "02. 9 To 5.wav" WAVE
INDEX 01 00:00:00
TRACK 03 AUDIO
TITLE "I Will Always Love You"
PERFORMER "Dolly Parton"
REM COMPOSER ""
INDEX 00 02:44:03
FILE "03. I Will Always Love You.wav" WAVE
INDEX 01 00:00:00
TRACK 04 AUDIO
TITLE "The House Of The Rising Sun"
PERFORMER "Dolly Parton"
REM COMPOSER ""
INDEX 00 02:53:35
FILE "04. The House Of The Rising Sun.wav" WAVE
INDEX 01 00:00:00
TRACK 05 AUDIO
TITLE "Working Girl"
PERFORMER "Dolly Parton"
REM COMPOSER ""
INDEX 00 03:59:47
FILE "05. Working Girl.wav" WAVE
INDEX 01 00:00:00
TRACK 06 AUDIO
TITLE "Single Woman"
PERFORMER "Dolly Parton"
REM COMPOSER ""
INDEX 00 03:14:61
FILE "06. Single Woman.wav" WAVE
INDEX 01 00:00:00
TRACK 07 AUDIO
TITLE "Heartbreak Express"
PERFORMER "Dolly Parton"
REM COMPOSER ""
INDEX 00 03:42:35
FILE "07. Heartbreak Express.wav" WAVE
INDEX 01 00:00:00
TRACK 08 AUDIO
TITLE "Tennessee Homesick Blues"
PERFORMER "Dolly Parton"
REM COMPOSER ""
INDEX 00 03:11:64
FILE "08. Tennessee Homesick Blues.wav" WAVE
INDEX 01 00:00:00
TRACK 09 AUDIO
TITLE "Save The Last Dance For Me"
PERFORMER "Dolly Parton"
REM COMPOSER ""
INDEX 00 03:23:04
FILE "09. Save The Last Dance For Me.wav" WAVE
INDEX 01 00:00:00
TRACK 10 AUDIO
TITLE "Don't Call It Love"
PERFORMER "Dolly Parton"
REM COMPOSER ""
INDEX 00 03:48:61
FILE "10. Don't Call It Love.wav" WAVE
INDEX 01 00:00:00
TRACK 11 AUDIO
TITLE "Yellow Roses"
PERFORMER "Dolly Parton"
REM COMPOSER ""
INDEX 00 03:15:09
FILE "11. Yellow Roses.wav" WAVE
INDEX 01 00:00:00
TRACK 12 AUDIO
TITLE "Do I Ever Cross Your Mind"
PERFORMER "Dolly Parton"
REM COMPOSER ""
INDEX 00 03:54:29
FILE "12. Do I Ever Cross Your Mind.wav" WAVE
INDEX 01 00:00:00
TRACK 13 AUDIO
TITLE "Rockin' Years (Duet With Ricky Van Shelton)"
PERFORMER "Dolly Parton"
REM COMPOSER ""
INDEX 00 04:00:29
FILE "13. Rockin' Years (Duet With Ricky Van Shelton).wav" WAVE
INDEX 01 00:00:00
TRACK 14 AUDIO
TITLE "Romeo"
PERFORMER "Dolly Parton"
REM COMPOSER ""
INDEX 00 03:25:28
FILE "14. Romeo.wav" WAVE
INDEX 01 00:00:00
TRACK 15 AUDIO
TITLE "It Wasn't God Who Made Honky Tonk Angels"
PERFORMER "Dolly Parton"
REM COMPOSER ""
INDEX 00 03:33:12
FILE "15. It Wasn't God Who Made Honky Tonk Angels.wav" WAVE
INDEX 01 00:00:00
TRACK 16 AUDIO
TITLE "Silver Threads And Golden Needles"
PERFORMER "Dolly Parton"
REM COMPOSER ""
INDEX 00 02:50:58
FILE "16. Silver Threads And Golden Needles.wav" WAVE
INDEX 01 00:00:00
TRACK 17 AUDIO
TITLE "Wings Of A Dove"
PERFORMER "Dolly Parton"
REM COMPOSER ""
INDEX 00 02:23:12
FILE "17. Wings Of A Dove.wav" WAVE
INDEX 01 00:00:00
TRACK 18 AUDIO
TITLE "Why'd You Come In Here Lookin' Like That"
PERFORMER "Dolly Parton"
REM COMPOSER ""
INDEX 00 02:33:21
FILE "18. Why'd You Come In Here Lookin' Like That.wav" WAVE
INDEX 01 00:00:00
TRACK 19 AUDIO
TITLE "More Where That Came From"
PERFORMER "Dolly Parton"
REM COMPOSER ""
INDEX 00 02:31:62
FILE "19. More Where That Came From.wav" WAVE
INDEX 01 00:00:00

Отчёт auCDtect Task manager:


-----------------------

DON'T MODIFY THIS FILE

-----------------------

PERFORMER: auCDtect Task Manager, ver. 1.5.1RC4 build 1.5.1.5
Copyright (c) 2008-2010 y-soft. All rights reserved
http://y-soft.org

ANALYZER: auCDtect: CD records authenticity detector, version 0.8.2
Copyright (c) 2004 Oleg Berngardt. All rights reserved.
Copyright (c) 2004 Alexander Djourik. All rights reserved.

FILE: 19. More Where That Came From.flac
Size: 22758014 Hash: 4B9CE86BA1DB63213DEBC4902EA90D70 Accuracy: -m0
Conclusion: CDDA 100%
Signature: D6ADAC1F3C2899526B259D78467451EA8E82E22C
FILE: 18. Why'd You Come In Here Lookin' Like That.flac
Size: 18014412 Hash: E254CE4B056430707B23A8C48CD8FB9C Accuracy: -m0
Conclusion: CDDA 100%
Signature: A467B86CB865DF2DB33B63FC65E417F1518B6D4E
FILE: 17. Wings Of A Dove.flac
Size: 16953173 Hash: 3391581BDE145E6F944FC68ACBB5E009 Accuracy: -m0
Conclusion: CDDA 100%
Signature: 7F624CEA8732704E78162438B527EAD6A8819C5B
FILE: 16. Silver Threads And Golden Needles.flac
Size: 16509705 Hash: 745B9C871290B5282532B830F56246B8 Accuracy: -m0
Conclusion: CDDA 100%
Signature: 97E0FEABE6ED4D18CA47E1B1608BF66668686CC4
FILE: 15. It Wasn't God Who Made Honky Tonk Angels.flac
Size: 18477958 Hash: 49CD15089D14A03C67D9470C4049D3AB Accuracy: -m0
Conclusion: CDDA 100%
Signature: 0E5CA2CE882836BCF2D9BD87B9E97A05FCC24735
FILE: 14. Romeo.flac
Size: 25465319 Hash: CC683CBA67B1A632C8A8AF1761A03793 Accuracy: -m0
Conclusion: CDDA 100%
Signature: D1A40329864F27D5567BE81C4FC0A7E44F020454
FILE: 13. Rockin' Years (Duet With Ricky Van Shelton).flac
Size: 19847250 Hash: 3AE7F3A480F2E6069751BCFB29550CD5 Accuracy: -m0
Conclusion: CDDA 100%
Signature: 5FCD80AEA574D3AF215F20CF9864E32C9A866A48
FILE: 12. Do I Ever Cross Your Mind.flac
Size: 23296949 Hash: EA0657D5221CFC5AAEAEAD7EF9854C76 Accuracy: -m0
Conclusion: CDDA 99%
Signature: CCE5AC677BAEE9F6501EC6E39178E56163C39AEA
FILE: 11. Yellow Roses.flac
Size: 26795804 Hash: A7A35A7188FE56904608F16BE46F8863 Accuracy: -m0
Conclusion: CDDA 100%
Signature: 7501754476F070079EBDE140BE6A06332C5E86E5
FILE: 10. Don't Call It Love.flac
Size: 21503726 Hash: CDF36D4984DB6AA271C0E866DD4E0494 Accuracy: -m0
Conclusion: CDDA 99%
Signature: F12C065E8C9C2A768E02393454F80806CD7078AC
FILE: 09. Save The Last Dance For Me.flac
Size: 24899966 Hash: 05329D42224E8CB7929507954F9A4CC7 Accuracy: -m0
Conclusion: CDDA 100%
Signature: B82BA14E7BCC42F330C5DA2D06FD627D4E492E7A
FILE: 08. Tennessee Homesick Blues.flac
Size: 23814220 Hash: 7CB5DE62ABF88096AF7B78A6403ED6C6 Accuracy: -m0
Conclusion: CDDA 100%
Signature: 4CA21CC46A2E0F4325BB320ED6D95DEC2FE30B04
FILE: 07. Heartbreak Express.flac
Size: 21498417 Hash: 84CA71EEDC24B73CC12945071DC00991 Accuracy: -m0
Conclusion: CDDA 100%
Signature: 1B53F267F2E71DBE5EA1D9B8F3FFA402EB506814
FILE: 06. Single Woman.flac
Size: 20450101 Hash: 861CE8982C5284A27435A9C47C683175 Accuracy: -m0
Conclusion: CDDA 100%
Signature: 5AA8B62FC94F04770B27BE242BC1F492F334990A
FILE: 05. Working Girl.flac
Size: 21043387 Hash: 412432EAF5C3E9FBB67A649D06242148 Accuracy: -m0
Conclusion: CDDA 100%
Signature: 40FAF953372D8F55017E503EA8592C3D029A9E2F
FILE: 04. The House Of The Rising Sun.flac
Size: 24357456 Hash: 4BBA3FB7ED0177FCD20CBB2FEE8F50BB Accuracy: -m0
Conclusion: CDDA 100%
Signature: 0CF9F1846B714177731F02270716DB4FB5C31A8A
FILE: 03. I Will Always Love You.flac
Size: 16934860 Hash: 143A8AED006E3B267DB5E925D203A381 Accuracy: -m0
Conclusion: CDDA 100%
Signature: 47BD89F49760396818DB85699F03D61141FBDB02
FILE: 02. 9 To 5.flac
Size: 19187181 Hash: A0B980948F8EE4DF7BF2B6E030F47750 Accuracy: -m0
Conclusion: MPEG 95%
Signature: 9DCF8802C350EB14327869FB5CD336CA9A3C2EF6
FILE: 01. Islands In The Stream (with Kenny Rogers).flac
Size: 27687351 Hash: 0014077C6E8FED3060921A22A58D9C23 Accuracy: -m0
Conclusion: CDDA 99%
Signature: 262516258071F39FA502F418E238AAFBD325DA38

Спектрограмма:






Поглощение/вытеснение
Только с согласия релизера

Pashketan
Детали торрента:
Название:Dolly Parton - The Real... Dolly Parton (The Ultimate Collection) (2013) 3CD [FLAC|Lossless|tracks + .cue] <Country>
Дата добавления:07 Июл 2017 21:08:38
Размер:991 MB
Раздают:
Качают:0
Форум:Folk (Lossless)

All rights reserved © 2015-2018