TORRENTS43.COM

Скачать Недопёсок Наполеон III (1978) SATRip [H.264]


Недопёсок Наполеон III (1978) SATRip [H.264]
Производство: СССР, Студия Горького
Жанр: Детский

Режиссер: Эдуард Бочаров
Актеры: Максим Сидоров, Анна Золотарева, Вадим Захарченко, Николай Сморчков, Дмитрий Ивановский, Валерий Феофанов, Даниил Нетребин, Светлана Светличная, Валентина Ананьина, Олеся Иванова, Александр Январёв, Мария Виноградова, Эдуард Бочаров, Валентина Березуцкая, Валентин Брылеев, Павел Винник, Елена Вольская, Маргарита Жарова, Артем Карапетян, Майя Булгакова

Описание:
Невероятные приключения зверей и людей с музыкой, песнями и плясками. Молодой песец Наполеон III, сбежав со зверофермы, оказался в деревне Ковылкино. Вслед за ним в деревню нагрянули охотники, звероловы, работники зверофермы, отряд милиции и корреспонденты...


Возраст: 0+ (для любой зрительской аудитории)

Продолжительность: 01:01:50
Качество видео: SATRip
Субтитры: отсутствуют

Видео: AVC/H.264, 688x554@736x554, ~2137 kbps
Аудио: AAC, 2 ch, 192 Kbps

Mediainfo:


Общее
Полное имя : Z:\Недопёсок Наполеон III (1978) SATRip.mp4
Формат : MPEG-4
Профиль формата : JVT
Идентификатор кодека : avc1 (avc1/mp42)
Размер файла : 1,01 Гбайт
Продолжительность : 1 ч. 1 м.
Режим общего битрейта : Переменный
Общий поток : 2341 Кбит/сек
Дата кодирования : UTC 2016-06-01 00:00:11
Дата пометки : UTC 2016-06-01 00:00:11

Видео
Идентификатор : 1
Формат : AVC
Формат/Информация : Advanced Video Codec
Профиль формата : High@L3.1
Параметр CABAC формата : Да
Параметр RefFrames формата : 2 кадра
Параметр GOP формата : M=3, N=30
Идентификатор кодека : avc1
Идентификатор кодека/Информация : Advanced Video Coding
Продолжительность : 1 ч. 1 м.
Вид битрейта : Переменный
Битрейт : 2137 Кбит/сек
Максимальный битрейт : 14,0 Мбит/сек
Ширина : 688 пикселей
Высота : 554 пикселя
Соотношение сторон : 4:3
Режим частоты кадров : Постоянный
Частота кадров : 25,000 кадров/сек
Цветовое пространство : YUV
Субдискретизация насыщенности : 4:2:0
Битовая глубина : 8 бит
Тип развёртки : Прогрессивная
Бит/(Пиксели*Кадры) : 0.224
Размер потока : 945 Мбайт (91%)
Язык : English
Дата кодирования : UTC 2016-06-01 00:00:11
Дата пометки : UTC 2016-06-01 00:00:11

Аудио
Идентификатор : 2
Формат : AAC
Формат/Информация : Advanced Audio Codec
Профиль формата : LC
Идентификатор кодека : 40
Продолжительность : 1 ч. 1 м.
Продолжительность оригинала : 1 ч. 1 м.
Вид битрейта : Постоянный
Битрейт : 192 Кбит/сек
Каналы : 2 канала
Расположение каналов : Front: L R
Частота : 48,0 КГц
Частота кадров : 46,875 кадров/сек (1024 SPF)
Метод сжатия : С потерями
Размер потока : 84,9 Мбайт (8%)
Размер потока оригинала : 84,9 Мбайт (8%)
Язык : English
Дата кодирования : UTC 2016-06-01 00:00:11
Дата пометки : UTC 2016-06-01 00:00:11
Скриншоты:

Дополнительные скриншоты:



Все одноименные релизы в Клубе
Детали торрента:
Название:Недопёсок Наполеон III (1978) SATRip [H.264]
Дата добавления:16 Июл 2017 15:02:29
Размер:1,01 GB
Раздают:1
Качают:0
Форум:Отечественные Фильмы для детей

All rights reserved © 2015-2018