TORRENTS43.COM

Скачать Орел и решка. Перезагрузка (2017.07.16) WEB-DLRip (сезон 14: Прага)


Орел и решка. Перезагрузка (2017.07.16) WEB-DLRip (сезон 14: Прага)
Телекомпания: ИНТЕР
Жанр: Реалити-шоу, путешествия, география, познавательный

Ведущий: Настя Ивлеева и Антон Птушкин

Описание:
Шесть лет назад команда проекта "Орел и решка" впервые отправилась в большое путешествие по самым интересным городам нашей планеты. За прошедшее время в них столько всего изменилось, что создатели шоу решили приехать сюда снова. "Орел и решка" объявляет перезагрузку! Телезрителей ждет встреча с невиданными чудесами, новыми незабываемыми впечатлениями и самое главное - с новыми ведущими!


Возраст: 12+ (зрителям, достигшим 12 лет)

Релиз от: svlesin
Продолжительность: ~ 00:46:18
Качество видео: WEB-DLRip
Субтитры: Отсутствуют

Видео: MPEG4, XviD, 720x400 (16:9), 25.000 fps, 1 800 Kbps (0.250 bit/pixel)
Аудио: AC-3, 44.1 KHz, 2 ch, 192 Kbps, CBR

Mediainfo:

Код: выделить все
 Общее
Полное имя                               : D:\[1]\Орел и решка\Орел и решка. Перезагрузка (2017.07.16) - Прага.avi
Формат                                   : AVI
Формат/Информация                        : Audio Video Interleave
Размер файла                             : 662 Мбайт
Продолжительность                        : 46 м. 17 с.
Общий поток                              : 1998 Кбит/сек
Название фильма                          : Orel I reshka. Perezagruzka (2017.07.16) - Praha_torrents43.com
Программа кодирования                    : VirtualDubMod 1.5.10.3 (build 2550/release)
Библиотека кодирования                   : VirtualDubMod build 2550/release

Видео
Идентификатор                            : 0
Формат                                   : MPEG-4 Visual
Профиль формата                          : Advanced Simple@L5
Параметр BVOP формата                    : 1
Параметр QPel формата                    : Нет
Параметр GMC формата                     : Без точки перехода
Параметр матрицы формата                 : Default (H.263)
Идентификатор кодека                     : XVID
Идентификатор кодека/Подсказка           : XviD
Продолжительность                        : 46 м. 17 с.
Битрейт                                  : 1800 Кбит/сек
Ширина                                   : 720 пикселей
Высота                                   : 400 пикселей
Соотношение сторон                       : 16:9
Частота кадров                           : 25,000 кадров/сек
Цветовое пространство                    : YUV
Субдискретизация насыщенности            : 4:2:0
Битовая глубина                          : 8 бит
Тип развёртки                            : Прогрессивная
Метод сжатия                             : С потерями
Бит/(Пиксели*Кадры)                      : 0.250
Размер потока                            : 596 Мбайт (90%)
Библиотека кодирования                   : XviD 67

Аудио
Идентификатор                            : 1
Формат                                   : AC-3
Формат/Информация                        : Audio Coding 3
Параметр Endianness формата              : Big
Идентификатор кодека                     : 2000
Продолжительность                        : 46 м. 17 с.
Продолжительность оригинала              : 46 м. 17 с.
Вид битрейта                             : Постоянный
Битрейт                                  : 192 Кбит/сек
Каналы                                   : 2 канала
Расположение каналов                     : Front: L R
Частота                                  : 44,1 КГц
Частота кадров                           : 28,711 кадров/сек (1536 spf)
Битовая глубина                          : 16 бит
Метод сжатия                             : С потерями
Размер потока                            : 63,6 Мбайт (10%)
Выравнивание                             : Разделение по промежуткам
Продолжительность промежутка             : 160  мс. (4,00 видеокадра)
Время предзагрузки промежутка            : 640  мс.
ServiceKind/String                       : Complete Main
 

В выпуске:

Орёл и Решка. Перезагрузка в Златой Праге, городе красных крыш и столице Чехии. Антон Птушкин и Настя Ивлеева проведут уик-энд в весенней, приветливой и солнечной Праге. Здесь мы посмотрели не только знаменитые достопримечательности и архитектуру, но и познакомились со скандальными творениями современных пражских скульпторов. Здесь нам провел экскурсию по городу местный бомж, мы оздоровились в Карловых Варах, полетали на машине-вертолете "Жиродрайв" и устроили покатушки на танке. Попрощались с Прагой мы вечером, у поющих фонтанов, со слезами на глазах!
Скриншоты:


Все одноименные релизы в Клубе
Детали торрента:
Название:Орел и решка. Перезагрузка (2017.07.16) WEB-DLRip (сезон 14: Прага)
Дата добавления:16 Июл 2017 16:50:41
Размер:662 MB
Раздают:
Качают:0
Форум:Клуб кинопутешествий

All rights reserved © 2015-2018