TORRENTS43.COM

Скачать Формула-Е 2016-2017. RD 08. Гонка 2 (2017) WEB-DL [H.264/720p-LQ] [VO]


Формула-Е 2016-2017. RD 08. Гонка 2 (2017) WEB-DL [H.264/720p-LQ] [VO]
Жанр: Спорт

Описание:
Формула E (англ. FIA Formula E Championship) — класс автогонок на электромобилях с открытыми колёсами. Класс основан в 2012 году и санкционирован международной автомобильной федерацией — FIA, целью его создания стало стремление создать лабораторию для исследований и разработки электрических транспортных средств, помогающую ускорить популяризацию электромобилей, а также выступающую в качестве двигателя инноваций и развития в сочетании с технологиями и духом автоспорта.

Релиз от:

Продолжительность: 01:41:26
Качество видео: WEB-DL
Перевод: Одноголосый закадровый, любительский
Язык: Русский

Видео: AVC/H.264, 1280х720, ~4255 Kbps
Аудио: AAC, 2 ch, 320 Kbps

Mediainfo:


General
Complete name : E:\Записи телевизионных шоу\Разное\Formula E, Qualcomm, New York City ePrix, Гонка 2, 16.07.2017 (HD 720p, 16.07.2017) [Русская озвучка, 545TV, A21 Network].mp4
Format : MPEG-4
Format profile : Base Media
Codec ID : isom (isom/iso2/avc1/mp41)
File size : 3.25 GiB
Duration : 1 h 41 min
Overall bit rate : 4 580 kb/s
Writing application : Lavf57.40.101

Video
ID : 1
Format : AVC
Format/Info : Advanced Video Codec
Format profile : Main@L3.1
Format settings, CABAC : Yes
Format settings, ReFrames : 2 frames
Codec ID : avc1
Codec ID/Info : Advanced Video Coding
Duration : 1 h 41 min
Bit rate : 4 255 kb/s
Width : 1 280 pixels
Height : 720 pixels
Display aspect ratio : 16:9
Frame rate mode : Constant
Frame rate : 25.000 FPS
Color space : YUV
Chroma subsampling : 4:2:0
Bit depth : 8 bits
Scan type : Progressive
Bits/(Pixel*Frame) : 0.185
Stream size : 3.01 GiB (93%)

Audio
ID : 2
Format : AAC
Format/Info : Advanced Audio Codec
Format profile : LC
Codec ID : 40
Duration : 1 h 41 min
Bit rate mode : Constant
Bit rate : 320 kb/s
Channel(s) : 2 channels
Channel positions : Front: L R
Sampling rate : 44.1 kHz
Frame rate : 43.066 FPS (1024 spf)
Compression mode : Lossy
Stream size : 232 MiB (7%)
Default : Yes
Alternate group : 1
Скриншоты:


Все одноименные релизы в Клубе
Детали торрента:
Название:Формула-Е 2016-2017. RD 08. Гонка 2 (2017) WEB-DL [H.264/720p-LQ] [VO]
Дата добавления:17 Июл 2017 22:33:51
Размер:3,25 GB
Раздают:
Качают:0
Форум:Архив Документалистики и TV

All rights reserved © 2015-2018