TORRENTS43.COM

Скачать Fate/Apocrypha / Судьба/Апокриф [2017, TV, 25 ep] HDTV 720p Raw+Rus


Fate/Apocrypha / Судьба/Апокриф
Жанр: приключения, фэнтези, экшен, исторический, сверхъестественное, драма
Тип: TV-сериал
Продолжительность: 25 эпизодов по 25 минут
Выпуск: c 02.07.2017 по 31.12.2017
Автор: Хигасидэ Юйтиро
Режиссер: Асай Ёсиюки
Производство: A-1 Pictures Inc.
Информационные ссылки: AniDB || World Art || MAL || ANN
Релиз подготовлен студией Kansai
  • Тип озвучки: Многоголосая, закадровая

Описание:
События этого произведения происходят в мире, параллельном мирам аниме "Судьба: Ночь схватки” и "Судьба: Начало”. Вам придётся представить, что события этих аниме так никогда и не произошли. В Третьей войне Святого Грааля дом Айнцберн вызывает Правителя вместо Мстителя. Святой Грааль из города Фуюки попадает в Румынию, чему напрямую способствует семья Иггдмилления, которая и похищает Святой Грааль. Они решают не скрывать сей факт и открыто заявляют, что именно они теперь владельцы Святого Грааля.

Но разве кто-то станет просто так мириться с этим? Если Святой Грааль не у нас, значит его нужно отобрать! Таким образом, город под названием Трифас всколыхнула очередная война. На этот раз противостоят друг друг две фракции: Красная и Чёрная, в каждой из которых по семь Слуг. В Чёрной Фракции состоит собственно семья Иггдмилления, защищающая своё приобретение. Красная Фракция собралась из посланников Ассоциации Магов, они хотят освободить Грааль. Но и сам Святой Грааль решил не оставаться в стороне и призвал собственного Слугу. Чем же закончится очередная заварушка?
Качество: HDTVRip | Энкод: Leopard-Raws
Язык озвучки: Японский и Русский
Формат: MKV
Видео: x264, 1280x720, ~2 523 kbps, 23.976 fps
Аудио: AAC, 192 kbps, 48.0 kHz, 2 ch
Аудио: AAC, 192 kbps, 48.0 kHz, 2 ch

Список эпизодов:

01. Apocrypha: Grail Contest
02. The Saint`s Departure
03. Fate Begins to Move
04. Price of Life, Redemption of Death
05. Will of Heaven
06. Knight of Rebellion
07. Where Freedom Lies
08. Onset of Warfare
09. One Hundred Flames and One Hundred Flowers
10. Scatter with the Flowers
11. Eternal Radiance
12. The Saint`s Return
13. The Last Master
14. Prayer of Salvation
15. Differing Paths
16. Jack the Ripper
17. Traumerei
18. From Hell
19. Dawn of the End
20. Soar Through the Sky
21. Antares Snipe
22. Reunion and Farewell
23. Going Beyond
24. The Holy Grail War
25. Apocrypha

Тех. параметры:

General
Unique ID : 170754161628669598307749943139899535205 (0x80760E2833CD9CAF9426DDC4DB1FEF65)
Complete name : Fate - Apocrypha [KANSAI]\[KANSAI] Fate - Apocrypha - 01 [720p].mkv
Format : Matroska
Format version : Version 4 / Version 2
File size : 499 MiB
Duration : 23 min 59 s
Overall bit rate : 2 907 kb/s
Encoded date : UTC 2017-07-25 22:17:23
Writing application : mkvmerge v14.0.0 ('Flow') 64bit
Writing library : libebml v1.3.4 + libmatroska v1.4.5

Video
ID : 1
Format : AVC
Format/Info : Advanced Video Codec
Format profile : High@L4.1
Format settings, CABAC : Yes
Format settings, RefFrames : 4 frames
Codec ID : V_MPEG4/ISO/AVC
Duration : 23 min 59 s
Bit rate : 2 523 kb/s
Width : 1 280 pixels
Height : 720 pixels
Display aspect ratio : 16:9
Frame rate mode : Constant
Frame rate : 23.976 (24000/1001) FPS
Color space : YUV
Chroma subsampling : 4:2:0
Bit depth : 8 bits
Scan type : Progressive
Bits/(Pixel*Frame) : 0.114
Stream size : 433 MiB (87%)
Writing library : x264 core 129 r2245+729M 1a52e03
Encoding settings : cabac=1 / ref=4 / deblock=1:1:-1 / analyse=0x3:0x113 / me=umh / subme=9 / psy=1 / fade_compensate=0.00 / psy_rd=1.00:0.00 / mixed_ref=1 / me_range=24 / chroma_me=1 / trellis=2 / 8x8dct=1 / cqm=0 / deadzone=21,11 / fast_pskip=1 / chroma_qp_offset=-2 / threads=8 / lookahead_threads=1 / sliced_threads=0 / nr=0 / decimate=1 / interlaced=0 / bluray_compat=0 / constrained_intra=0 / fgo=0 / bframes=9 / b_pyramid=2 / b_adapt=2 / b_bias=0 / direct=1 / weightb=1 / open_gop=0 / weightp=2 / keyint=240 / keyint_min=24 / scenecut=40 / intra_refresh=0 / rc=crf / mbtree=0 / crf=17.5 / qcomp=0.72 / qpmin=0 / qpmax=69 / qpstep=4 / ip_ratio=1.40 / pb_ratio=1.30 / aq=1:0.85
Language : Japanese
Default : Yes
Forced : No
Color range : Limited
Color primaries : BT.709
Transfer characteristics : BT.709
Matrix coefficients : BT.709

Audio #1
ID : 2
Format : AAC
Format/Info : Advanced Audio Codec
Format profile : LC
Codec ID : A_AAC
Duration : 23 min 59 s
Bit rate : 192 kb/s
Channel(s) : 2 channels
Channel positions : Front: L R
Sampling rate : 48.0 kHz
Frame rate : 46.875 FPS (1024 SPF)
Compression mode : Lossy
Stream size : 32.5 MiB (7%)
Language : Russian
Default : Yes
Forced : No

Audio #2
ID : 3
Format : AAC
Format/Info : Advanced Audio Codec
Format profile : LC
Codec ID : A_AAC
Duration : 23 min 59 s
Bit rate : 192 kb/s
Channel(s) : 2 channels
Channel positions : Front: L R
Sampling rate : 48.0 kHz
Frame rate : 46.875 FPS (1024 SPF)
Compression mode : Lossy
Stream size : 33.0 MiB (7%)
Language : Japanese
Default : No
Forced : No


Смотреть Online

http://moonwalk.cc/video/2a714ef277def42c/iframe
Детали торрента:
Название:Fate/Apocrypha / Судьба/Апокриф [2017, TV, 25 ep] HDTV 720p Raw+Rus
Дата добавления:22 Янв 2018 02:44:37
Размер:15,2 GB
Раздают:8
Качают:0
Форум:Аниме с озвучкой (HD)

создание сайтов All rights reserved © 2015-2018