TORRENTS43.COM

Скачать BBC. Horizon. Как перестать тревожиться и стать счастливым? / Don’t Worry, Be Happy (The Truth About Personality) (2013) HDTV [H.264/1080i-LQ] (Сезон 49, эпизод 18)


Как перестать тревожиться и стать счастливым? / Don’t Worry, Be Happy (The Truth About Personality) (2013) HDTV [H.264/1080i-LQ] (Сезон 49, эпизод 18)
Производство: Великобритания, BBC
Жанр: Документальный, психология, личность

Режиссер: Хелен Никсон
Участники: Майкл Мосли

Описание:
Каждый из нас в детстве был жизнерадостным ребенком. И в возрасте мы стараемся казаться беззаботными, но на самом деле - это лишь видимость. Мы почти всегда думаем о плохом: о том, как всё ужасно, мы боимся потерять работу, заразится кошмарной болезнью или остаться без денег. Мы подвержены стрессу и страху перед будущим. Но есть ли у нас шанс измениться, перестать быть пессимистами? Это сложнее, чем кажется, однако вполне реально. И оно того стоит!



Релиз от: DaVinci
Продолжительность: 00:51:13
Качество видео: HDTV
Перевод: Двуголосый закадровый, профессиональный (Видеофильм ТВ)
Субтитры: отсутствуют

Видео: AVC/H.264, 1920 x 1080, ~5605 Kbps
Аудио: AC3, 2 ch, 192 Kbps

Mediainfo:


Общее
Идентификатор : 1 (0x1)
Полное имя : F:\КИНО\Dont.Worry.Be.Happy.(2013).HDTV.1080i.Rus.ts
Формат : MPEG-TS
Размер файла : 2,18 Гбайт
Продолжительность : 51 м. 11 с.
Режим общего битрейта : Переменный
Общий поток : 6100 Кбит/сек
Максимальный общий битрейт : 35,5 Мбит/сек

Видео
Идентификатор : 4113 (0x1011)
Идентификатор меню : 1 (0x1)
Формат : AVC
Формат/Информация : Advanced Video Codec
Профиль формата : High@L4
Параметр CABAC формата : Да
Параметр RefFrames формата : 4 кадра
Идентификатор кодека : 27
Продолжительность : 51 м. 13 с.
Битрейт : 5605 Кбит/сек
Ширина : 1920 пикселей
Высота : 1080 пикселей
Соотношение сторон : 16:9
Частота кадров : 25,000 кадров/сек
Цветовое пространство : YUV
Субдискретизация насыщенности : 4:2:0
Битовая глубина : 8 бит
Тип развёртки : Чересстрочная
Метод сохранения типа развёртки : Раздельные поля
Порядок развёртки : Верхнее поле первое
Бит/(Пиксели*Кадры) : 0.108
Размер потока : 2,01 Гбайт (92%)
Цветовой диапазон : Limited
Основные цвета : BT.709
Характеристики трансфера : BT.709
Коэффициенты матрицы : BT.709

Аудио
Идентификатор : 4352 (0x1100)
Идентификатор меню : 1 (0x1)
Формат : AC-3
Формат/Информация : Audio Coding 3
Параметр Endianness формата : Big
Идентификатор кодека : 129
Продолжительность : 51 м. 11 с.
Вид битрейта : Постоянный
Битрейт : 192 Кбит/сек
Каналы : 2 канала
Расположение каналов : Front: L R
Частота : 48,0 КГц
Частота кадров : 31,250 кадров/сек (1536 SPF)
Битовая глубина : 16 бит
Метод сжатия : С потерями
Размер потока : 70,3 Мбайт (3%)
Язык : Russian
ServiceKind/String : Complete Main
Скриншоты:


Все одноименные релизы в Клубе
Детали торрента:
Название:BBC. Horizon. Как перестать тревожиться и стать счастливым? / Don’t Worry, Be Happy (The Truth About Personality) (2013) HDTV [H.264/1080i-LQ] (Сезон 49, эпизод 18)
Дата добавления:29 Июл 2017 22:42:41
Размер:2,18 GB
Раздают:5
Качают:0
Форум:BBC

All rights reserved © 2015-2018