TORRENTS43.COM

Скачать Халк против Тора / Hulk Vs Thor (2009) [1080p] BDRip


Халк против Тора / Hulk Vs Thor (2009) [1080p] [BDRip]
Русское название: Халк против Тора
Оригинальное название: Hulk Vs Thor
Год выпуска: 2009
Жанр: мультфильм, фантастика, боевик
Производство: Marvel, Lionsgate / США

Описание:
Это короткометражный мультфильм от компании Marvel и Lionsgate, в которых рассказывается о новых похождениях невероятного Халка. В этот раз он сразится с Тором

Режиссер: Франк Паур / Frank Paur
Актеры: Марк Эчесон, Стивен Блум, Джемили Джаред, Брюс Джонсон, Том Кэйн, Грэм МакТавиш, Колин Мёрдок, Нолан Норт, Фред Татаскьор, Мэттью Вульф

Продолжительность: 00:45:29
Перевод: Двухголосый закадровый
Язык субтитров: Английские
Вид субтитров: Вшитые (отключаемые)

Видеокодек: MPEG-4 AVC/H.264
Битрейт видео: ~ 5370 Kbps
Размер кадра: 1920x1080
Качество видео: BDRip
Аудио 1: AC3, 5.1, 448 Kbps (Русский)
Аудио 2: DTS, 5.1, 1509 Kbps (Английский)
Сэмпл:

MediaInfo

General
Format : Matroska
Format version : Version 1
File size : 2.33 GiB
Duration : 45mn 28s
Overall bit rate : 7 332 Kbps
Encoded date : UTC 2009-02-21 22:35:53
Writing application : mkvmerge v2.4.2 ('Oh My God') built on Jan 18 2009 17:30:28
Writing library : libebml v0.7.7 + libmatroska v0.8.1

Video
ID : 1
Format : AVC
Format/Info : Advanced Video Codec
Format profile : High@L4.0
Format settings, CABAC : Yes
Format settings, ReFrames : 4 frames
Codec ID : V_MPEG4/ISO/AVC
Duration : 45mn 28s
Bit rate : 5 370 Kbps
Width : 1 920 pixels
Height : 1 080 pixels
Display aspect ratio : 16:9
Frame rate mode : Constant
Frame rate : 23.976 fps
Color space : YUV
Chroma subsampling : 4:2:0
Bit depth : 8 bits
Scan type : Progressive
Bits/(Pixel*Frame) : 0.108
Stream size : 1.66 GiB (71%)
Writing library : x264 core 66 r1089 355c445
Encoding settings : cabac=1 / ref=4 / deblock=1:0:0 / analyse=0x3:0x113 / me=umh / subme=7 / psy_rd=1.0:0.0 / mixed_ref=1 / me_range=16 / chroma_me=1 / trellis=1 / 8x8dct=1 / cqm=0 / deadzone=21,11 / chroma_qp_offset=-2 / threads=6 / nr=0 / decimate=1 / mbaff=0 / bframes=3 / b_pyramid=1 / b_adapt=1 / b_bias=0 / direct=1 / wpredb=1 / keyint=250 / keyint_min=25 / scenecut=40(pre) / rc=2pass / bitrate=5370 / ratetol=1.0 / qcomp=0.60 / qpmin=10 / qpmax=51 / qpstep=4 / cplxblur=20.0 / qblur=0.5 / ip_ratio=1.40 / pb_ratio=1.30 / aq=1:1.00
Language : English
Default : Yes
Forced : No

Audio #1
ID : 2
Format : AC-3
Format/Info : Audio Coding 3
Mode extension : CM (complete main)
Format settings, Endianness : Big
Codec ID : A_AC3
Duration : 45mn 28s
Bit rate mode : Constant
Bit rate : 448 Kbps
Channel(s) : 6 channels
Channel positions : Front: L C R, Side: L R, LFE
Sampling rate : 48.0 KHz
Bit depth : 16 bits
Compression mode : Lossy
Stream size : 146 MiB (6%)
Title : AC3, 6ch 448 kbps
Language : Russian
Default : Yes
Forced : No

Audio #2
ID : 3
Format : DTS
Format/Info : Digital Theater Systems
Mode : 16
Format settings, Endianness : Big
Codec ID : A_DTS
Duration : 45mn 28s
Bit rate mode : Constant
Bit rate : 1 509 Kbps
Channel(s) : 6 channels
Channel positions : Front: L C R, Side: L R, LFE
Sampling rate : 48.0 KHz
Bit depth : 24 bits
Compression mode : Lossy
Stream size : 491 MiB (21%)
Title : DTS , 6ch 1536 kbps
Language : English
Default : No
Forced : No

Text
ID : 4
Format : UTF-8
Codec ID : S_TEXT/UTF8
Codec ID/Info : UTF-8 Plain Text
Language : English
Default : Yes
Forced : No
Скриншоты:


Детали торрента:
Название:Халк против Тора / Hulk Vs Thor (2009) [1080p] BDRip
Дата добавления:05 Мар 2009 04:35:45
Размер:2,33 GB
Раздают:
Качают:0
Форум:Зарубежные Мультфильмы (HD)

All rights reserved © 2015-2018