TORRENTS43.COM

Скачать Игрушки / Joysticks (1983) BDRip [H.265/1080p-LQ] [VO]


Игрушки / Joysticks (1983) BDRip
Производство: США / Jensen Farley Pictures
Жанр: Комедия

Режиссер: Грейдон Кларк
Актеры: Джо Дон Бейкер, Лейф Грин, Джим Гринлиф, Скотт Макгиннис, Джон Гриз, Корина Борер, Джон Дил, Джон Волдстад, Рейд Крукшэнкс, Морган Лоуфтин

Описание:
Один недалекий бизнесмен и два его недоумка — племянника все свое свободное время тратят на компьютерные игры. Может ли такое увлечение сделать из них достойных членов общества, а может быть, наконец, общество станет достойно их пристального внимания?..


Рейтинг MPAA: R (лицам до 17 лет обязательно присутствие взрослого)

Релиз от: Ciame

Продолжительность: 01:27:00
Качество видео: BDRip
Перевод: Одноголосый закадровый
Субтитры: отсутствуют

Видео: HEVC/H.265, 1920x1078, ~7194 Kbps
Аудио: AC3, 2 ch, 192 Kbps

Mediainfo:


Общее
Уникальный идентификатор : 222472250072513849030200299311928835876 (0xA75E98C942985C779F472BD2079DFF24)
Полное имя : E:\Video\Игрушки (Joysticks).mkv
Формат : Matroska
Версия формата : Version 4 / Version 2
Размер файла : 4,49 Гбайт
Продолжительность : 1 ч. 27 м.
Общий поток : 7388 Кбит/сек
Название фильма : Игрушки / Joysticks
Дата кодирования : UTC 2017-08-13 11:27:39
Программа кодирования : mkvmerge v12.0.0 ('Trust / Lust') 64bit
Библиотека кодирования : libebml v1.3.4 + libmatroska v1.4.5
Авторское право : Encoded by Ciame
Attachments : 1c3d89a7c9c7cb30a112d1f4fb74d27a.jpg
Released by : Buba5473 for torrents43.com />
Видео
Идентификатор : 1
Формат : HEVC
Формат/Информация : High Efficiency Video Coding
Профиль формата : Main@L4@Main
Идентификатор кодека : V_MPEGH/ISO/HEVC
Продолжительность : 1 ч. 27 м.
Битрейт : 7194 Кбит/сек
Ширина : 1920 пикселей
Высота : 1078 пикселей
Соотношение сторон : 16:9
Режим частоты кадров : Постоянный
Частота кадров : 23,976 (24000/1001) кадра/сек
Цветовое пространство : YUV
Субдискретизация насыщенности : 4:2:0
Битовая глубина : 8 бит
Бит/(Пиксели*Кадры) : 0.145
Размер потока : 4,37 Гбайт (97%)
Заголовок : Porci con le ragazze (1983) - Ciame
Библиотека кодирования : x265 1.5:[Windows][GCC 4.9.0][64 bit]
Настройки программы : wpp / ctu=32 / tu-intra-depth=1 / tu-inter-depth=1 / me=1 / subme=1 / merange=57 / no-rect / no-amp / max-merge=2 / temporal-mvp / early-skip / no-fast-cbf / rdpenalty=0 / no-tskip / no-tskip-fast / strong-intra-smoothing / no-lossless / no-cu-lossless / no-constrained-intra / fast-intra / open-gop / interlace=0 / keyint=240 / min-keyint=24 / scenecut=40 / rc-lookahead=15 / bframes=4 / bframe-bias=0 / b-adapt=0 / ref=1 / weightp / no-weightb / aq-mode=1 / aq-strength=1.00 / cbqpoffs=0 / crqpoffs=0 / rd=2 / psy-rd=0.30 / psy-rdoq=0.00 / signhide / lft / sao / no-sao-non-deblock / b-pyramid / no-cutree / rc=crf / crf=22.0 / qcomp=0.60 / qpmin=0 / qpmax=51 / qpstep=4 / ipratio=1.40 / pbratio=1.30
Default : Да
Forced : Нет
Цветовой диапазон : Limited
Основные цвета : BT.709
Характеристики трансфера : BT.709
Коэффициенты матрицы : BT.709

Аудио
Идентификатор : 2
Формат : AC-3
Формат/Информация : Audio Coding 3
Параметр Endianness формата : Big
Идентификатор кодека : A_AC3
Продолжительность : 1 ч. 26 м.
Вид битрейта : Постоянный
Битрейт : 192 Кбит/сек
Каналы : 2 канала
Расположение каналов : Front: L R
Частота : 48,0 КГц
Частота кадров : 31,250 кадров/сек (1536 spf)
Битовая глубина : 16 бит
Метод сжатия : С потерями
Задержка видео : 3 с. 917 мс.
Размер потока : 119 Мбайт (3%)
Заголовок : Перевод: Одноголосый закадровый
Язык : Russian
ServiceKind/String : Complete Main
Default : Да
Forced : Нет

XMP
Xmp.video.FileName : E:\Video\Игрушки (Joysticks).mkv
Xmp.video.FileSize : -9.53674e-007
Xmp.video.MimeType : video/matroska
Xmp.video.EBMLVersion : 1
Xmp.video.EBMLReadVersion : 1
Xmp.video.DocType : matroska
Xmp.video.DocTypeVersion : 4
Xmp.video.DocTypeReadVersion : 2
Xmp.video.TimecodeScale : 0.001
Xmp.video.MuxingApp : libebml v1.3.4 + libmatroska v1.4.5
Xmp.video.WritingApp : mkvmerge v12.0.0 ('Trust / Lust') 64bit
Xmp.video.Duration : 5220257
Xmp.video.DateUTC : 524316459
Xmp.video.Title : Р?грушки / Joysticks
Xmp.video.TotalStream : 4
Xmp.video.TrackLacing : No
Xmp.video.Codec : V_MPEGH/ISO/HEVC
Xmp.video.FrameRate : 23.976
Xmp.video.TrackLang : und
Xmp.video.TrackName : Перевод: Одноголосый закадровый
Xmp.video.Width : 1920
Xmp.video.Height : 1078
Xmp.audio.Compressor : A_AC3
Xmp.audio.DefaultDuration : 32000
Xmp.audio.TrackLang : rus
Xmp.audio.SampleRate : 48000
Xmp.audio.ChannelType : Stereo
Xmp.video.AttachFileName : 1c3d89a7c9c7cb30a112d1f4fb74d27a.jpg
Xmp.video.AttachFileMIME : image/jpeg
Xmp.video.AttachFileUID : 7187160777709298108
Xmp.video.AttachFileDesc : Cover
Xmp.video.AspectRatio : 16:9

Внимание! HEVC/x265:

H.265/HEVC (High Efficiency Video Coding) - это новый стандарт кодирования видео.
*Рипы в фомате HEVC, в настоящее время не поддерживается большинством аппаратных проигрывателей.
*Для корректного воспроизведения может потребоваться обновление ПО.
*Стандарт H.265/HEVC является логическим продолжением стандарта H.264/AVC (Advanced Video Coding), и характеризуется более эффективными алгоритмами сжатия, а также поддержкой высокого разрешения вплоть до 8K UHD (8192x4320). Первая версия стандарта H.265 была опубликована в начале 2013 года.

Любителям решения из коробки - установить последнюю версию на выбор:
Media Player Classic - Black Edition (MPC-BE)
VLC media player
Daum Pot Player
GOM Media Player

Любителям WMP и других плееров, использующих по умолчанию для воспроизведения системные кодеки+сплитеры - установить K-Lite Codec Pack версии 10.1.0 и выше.
Любимые плееры, не использующии по умолчанию для воспроизведения системные кодеки+сплитеры, нужно перенастроить на испоьзование оных.
Скриншоты:


Все одноименные релизы в Клубе

Смотреть Online

http://coolstory.cc/video/3c607891a26cbaa8/iframe
Детали торрента:
Название:Игрушки / Joysticks (1983) BDRip [H.265/1080p-LQ] [VO]
Дата добавления:15 Авг 2017 04:34:17
Размер:4,49 GB
Раздают:2
Качают:0
Форум:Старые Зарубежные Фильмы (HD*Rip/LQ, DVDRip, SATRip, VHSRip)

All rights reserved © 2015-2018