TORRENTS43.COM

Скачать Ловушка для дракона / Pitfall for a dragon (2017) WEB-DL [H.264/1080p-LQ] [музыкальный клип]


Ловушка для дракона / Pitfall for a dragon (2017) WEB-DL [H.264/1080p-LQ]
Производство: AlinaCroft
Жанр: Фэнтези, Приключения, Драма

Режиссер: AlinaCroft
Актеры: Кит Харингтон, Рори Макканн, Иэн Глен, Эмилия Кларк

Описание:
Джон Сноу и его отряд самоубийц начинают убегать от армии Белых Ходоков и в конечном счёте оказываются на острове льда. Когда из-за большого количества упырей лёд начал трескаться, это сдержало зловещих мертвецов от боевых атак на длительный период времени. Позже Псу становится скучно и он начинает кидаться камнями по упырям, до тех пор пока последний брошенный камень даёт возможность понять, что треснувший лёд вновь замёрз, и упыри могут продолжить смертельное нападение. Отряд самоубийц отчаянно сражается за свои жизни против смертельного врага, и, когда кажется, что все силы на исходе, и смертельный итог неизбежен, к ним на помощь подлетает королева - мать Дейенерис, со своими «детками дракошами» и начинает жечь напалмом.
В данной раздаче предлагается музыкальная версия Ледового побоища, со звуковой дорожкой состоящей из Рок Хитов на все времена. Приятного просмотра!

Релиз от: AlinaCroft (клип сделан автором релиза).

Продолжительность: 00:10:11
Качество видео: WEB-DL
Перевод: Отсутствует
Субтитры: отсутствуют

Видео: AVC/H.264, 1920x1080, 23.976fps, ~5927kbps
Аудио: AAC, 2 ch, 151kbps

Mediainfo:


Формат : MPEG-4
Профиль формата : Base Media
Идентификатор кодека : isom (isom/iso2/avc1/mp41)
Размер файла : 443 Мбайт
Продолжительность : 10 м. 11 с.
Режим общего битрейта : Переменный
Общий поток : 6084 Кбит/сек
Название фильма : Pitfall for a dragon @ torrents43.com />Дата записи : 2017
Дата кодирования : 2017-08-21 10:29:00
Дата пометки : 2017-08-21 10:29:00
Программа кодирования : Lavf51.12.1
Xtra : WM/Publisher

Видео
Идентификатор : 1
Формат : AVC
Формат/Информация : Advanced Video Codec
Профиль формата : Baseline@L1.3
Параметр CABAC формата : Нет
Параметр ReFrames формата : 1 кадр
Параметр GOP формата : M=1, N=12
Идентификатор кодека : avc1
Идентификатор кодека/Информация : Advanced Video Coding
Продолжительность : 10 м. 11 с.
Битрейт : 5928 Кбит/сек
Ширина : 1920 пикселей
Высота : 1080 пикселей
Соотношение сторон : 16:9
Режим частоты кадров : Постоянный
Частота кадров : 23,976 (24000/1001) кадра/сек
Цветовое пространство : YUV
Субдискретизация насыщенности : 4:2:0
Битовая глубина : 8 бит
Тип развёртки : Прогрессивная
Бит/(Пиксели*Кадры) : 0.119
Размер потока : 432 Мбайт (97%)
Язык : English
Дата кодирования : 2017-08-21 10:29:00
Дата пометки : 2017-08-21 10:29:00

Аудио
Идентификатор : 2
Формат : AAC
Формат/Информация : Advanced Audio Codec
Профиль формата : LC
Идентификатор кодека : 40
Продолжительность : 10 м. 10 с.
Вид битрейта : Переменный
Битрейт : 151 Кбит/сек
Каналы : 2 канала
Расположение каналов : Front: L R
Частота : 44,1 КГц
Частота кадров : 43,066 кадра/сек (1024 SPF)
Метод сжатия : С потерями
Размер потока : 11,1 Мбайт (2%)
Дата кодирования : 2017-08-21 10:29:00
Дата пометки : 2017-08-21 10:29:00
Скриншоты:

Дополнительные скриншоты:

Детали торрента:
Название:Ловушка для дракона / Pitfall for a dragon (2017) WEB-DL [H.264/1080p-LQ] [музыкальный клип]
Дата добавления:23 Авг 2017 09:32:53
Размер:443 MB
Раздают:
Качают:0
Форум:Остальное

All rights reserved © 2015-2018