TORRENTS43.COM

Скачать Меган Ливи / Megan Leavey (2017) WEB-DL [H.264/1080p-LQ] [EN / EN Sub]


Меган Ливи / Megan Leavey (2017) WEB-DL [H.264/1080p-LQ] [EN / EN Sub]
Производство: США, LD Entertainment, Calle Cruzada
Жанр: Биография, Драма, Война

Режиссер: Габриэла Каупертвэйте
Продюсер: Мики Лиделл, Дженнифер Хилтон, Пит Шилеймон, ...
Актеры: Кейт Мара, Джеральдин Джеймс, Брэдли Уитфорд, Том Фелтон, Иди Фалько, Коммон, Уилл Пэттон, Шеннон Тарбет, Рамон Родригес, Кори Джонсон ...

Описание:
В основу фильма легла реальная история дружбы и верности военнослужащей армии США Меган Ливи и её пса Рекса. Вместе они проходили опасную службу в Ираке с 2004 по 2006 год, где находили и обезвреживали взрывные устройства, спасая жизни многих людей.



Рейтинг MPAA: PG-13 (детям до 13 лет просмотр нежелателен)
Премьера (мир): 7 мая 2017, ...

Продолжительность: 01:56:37
Качество видео: WEB-DL 1080p
Перевод: Отсутствует
Язык озвучки: Английский
Субтитры: Английские

Видео: AVC, 1916x796 (2.40:1), 23.976 fps, 4 436 Kbps (0.121 bit/pixel)
Аудио: AC-3, 48.0 KHz, 6 ch, 384 Kbps, CBR (English)

Mediainfo:

General
Complete name : Megan.Leavey.2017.1080p.WEB-DL.DD5.1.H264.mkv
Format : Matroska
Format version : Version 4 / Version 2
File size : 4.01 GiB
Duration : 1 h 56 min
Overall bit rate : 4 918 kb/s
Encoded date : UTC 2017-08-22 06:52:21
Writing application : mkvmerge v14.0.0 ('Flow') 64bit
Writing library : libebml v1.3.4 + libmatroska v1.4.5

Video
ID : 1
Format : AVC
Format/Info : Advanced Video Codec
Format profile : High@L4
Format settings, CABAC : Yes
Format settings, RefFrames : 5 frames
Codec ID : V_MPEG4/ISO/AVC
Duration : 1 h 56 min
Bit rate : 4 436 kb/s
Width : 1 916 pixels
Height : 796 pixels
Display aspect ratio : 2.40:1
Frame rate mode : Constant
Frame rate : 23.976 (24000/1001) FPS
Color space : YUV
Chroma subsampling : 4:2:0
Bit depth : 8 bits
Scan type : Progressive
Bits/(Pixel*Frame) : 0.121
Stream size : 3.61 GiB (90%)
Language : English
Default : Yes
Forced : No
Color range : Limited
Color primaries : BT.709
Transfer characteristics : BT.709
Matrix coefficients : BT.709

Audio
ID : 2
Format : AC-3
Format/Info : Audio Coding 3
Format settings, Endianness : Big
Codec ID : A_AC3
Duration : 1 h 56 min
Bit rate mode : Constant
Bit rate : 384 kb/s
Channel(s) : 6 channels
Channel positions : Front: L C R, Side: L R, LFE
Sampling rate : 48.0 kHz
Frame rate : 31.250 FPS (1536 SPF)
Bit depth : 16 bits
Compression mode : Lossy
Delay relative to video : -42 ms
Stream size : 320 MiB (8%)
Language : English
Service kind : Complete Main
Default : Yes
Forced : No

Text
ID : 3
Format : UTF-8
Codec ID : S_TEXT/UTF8
Codec ID/Info : UTF-8 Plain Text
Language : English
Default : Yes
Forced : No

Menu
00:00:00.000 : en:1
00:04:28.768 : en:2
00:08:13.284 : en:3
00:15:32.264 : en:4
00:20:06.788 : en:5
00:27:40.867 : en:6
00:34:45.124 : en:7
00:38:49.827 : en:8
00:45:12.793 : en:9
00:52:08.875 : en:10
00:58:52.194 : en:11
01:06:29.150 : en:12
01:11:45.758 : en:13
01:17:20.717 : en:14
01:23:29.585 : en:15
01:28:39.519 : en:16
01:34:45.051 : en:17
01:39:34.131 : en:18
01:44:30.510 : en:19
01:48:41.052 : en:20
Скриншоты:

Дополнительные скриншоты:




Все одноименные релизы в Клубе

Смотреть Online

http://moonwalk.cc/video/df8d9d78db43eba0/iframe
Детали торрента:
Название:Меган Ливи / Megan Leavey (2017) WEB-DL [H.264/1080p-LQ] [EN / EN Sub]
Дата добавления:22 Авг 2017 12:31:50
Размер:4,01 GB
Раздают:4
Качают:0
Форум:Фильмы в оригинале

All rights reserved © 2015-2018