TORRENTS43.COM

Скачать Бушвик / Bushwick (2017) WEB-DL [H.264/1080p-LQ] [EN]


Бушвик / Bushwick (2017) WEB-DL [H.264/1080p-LQ] [EN]
Производство: США, Bullet Pictures, Mensch Productions, Ralfish Films
Жанр: Боевик, Приключения

Режиссер: Кэри Мернион, Джонатан Милотт
Продюсер: Натаниель Болотин, Адам Фолк, Джозеф Менш, ...
Актеры: Дэйв Батиста, Кристиан Наварро, Бриттани Сноу, Джереми Харрис, Артуро Кастро, Анджелик Замбрана, Патрик М. Уолш, Джей Хайрон, Куинси Чад Френсис, Джефф Лима ...

Описание:
История о двадцатилетней девушке Люси и ветеране войны Ступе. Техас планирует выйти из состава США, и в качестве площадки для переговоров используется Нью-Йорк. Однако город превращается в театр боевых действий, и девушке придется объединиться с бывшим военным, чтобы пересечь 5 кварталов района Бушвик, заполненных войсками и мародерами.



Премьера (мир): 21 января 2017, ...

Продолжительность: 01:33:49
Качество видео: WEB-DL 1080p
Перевод: Отсутствует
Язык озвучки: Английский
Субтитры: Отсутствуют

Видео: AVC, 1910x796 (2.35:1), 23.976 fps, 4 537 Kbps (0.124 bit/pixel)
Аудио: AC-3, 48.0 KHz, 6 ch, 384 Kbps, CBR (English)

Mediainfo:

General
Complete name : Bushwick.2017.1080p.WEB-DL.DD5.1.H264.mkv
Format : Matroska
Format version : Version 4 / Version 2
File size : 3.29 GiB
Duration : 1 h 33 min
Overall bit rate : 5 020 kb/s
Encoded date : UTC 2017-08-25 05:09:18
Writing application : mkvmerge v14.0.0 ('Flow') 64bit
Writing library : libebml v1.3.4 + libmatroska v1.4.5

Video
ID : 1
Format : AVC
Format/Info : Advanced Video Codec
Format profile : High@L4
Format settings, CABAC : Yes
Format settings, RefFrames : 5 frames
Codec ID : V_MPEG4/ISO/AVC
Duration : 1 h 33 min
Bit rate : 4 537 kb/s
Width : 1 910 pixels
Height : 796 pixels
Display aspect ratio : 2.40:1
Frame rate mode : Constant
Frame rate : 23.976 (24000/1001) FPS
Color space : YUV
Chroma subsampling : 4:2:0
Bit depth : 8 bits
Scan type : Progressive
Bits/(Pixel*Frame) : 0.124
Stream size : 2.97 GiB (90%)
Language : English
Default : Yes
Forced : No
Color range : Limited
Color primaries : BT.709
Transfer characteristics : BT.709
Matrix coefficients : BT.709

Audio
ID : 2
Format : AC-3
Format/Info : Audio Coding 3
Format settings, Endianness : Big
Codec ID : A_AC3
Duration : 1 h 33 min
Bit rate mode : Constant
Bit rate : 384 kb/s
Channel(s) : 6 channels
Channel positions : Front: L C R, Side: L R, LFE
Sampling rate : 48.0 kHz
Frame rate : 31.250 FPS (1536 SPF)
Bit depth : 16 bits
Compression mode : Lossy
Delay relative to video : -42 ms
Stream size : 258 MiB (8%)
Language : English
Service kind : Complete Main
Default : Yes
Forced : No

Menu
00:00:00.000 : en:01
00:05:58.000 : en:02
00:11:58.000 : en:03
00:17:41.000 : en:04
00:23:30.000 : en:05
00:29:19.000 : en:06
00:35:41.000 : en:07
00:41:35.000 : en:08
00:47:32.000 : en:09
00:53:09.000 : en:10
00:59:00.000 : en:11
01:05:11.000 : en:12
01:10:59.000 : en:13
01:16:33.000 : en:14
01:23:01.000 : en:15
01:29:04.000 : en:16
Скриншоты:

Дополнительные скриншоты:



Все одноименные релизы в Клубе

Смотреть Online

http://moonwalk.cc/video/c46fea3041158745/iframe
Детали торрента:
Название:Бушвик / Bushwick (2017) WEB-DL [H.264/1080p-LQ] [EN]
Дата добавления:25 Авг 2017 11:26:30
Размер:3,29 GB
Раздают:
Качают:0
Форум:Фильмы в оригинале

All rights reserved © 2015-2018