TORRENTS43.COM

Скачать Массовка / Extras (2005-2007) DVDRip, HDTVRip [H.264] (сезон 1-2, серии 1-12 из 12 + Special) ОРТ, liosaa


Массовка / Extras (2005-2007) DVDRip, HDTVRip [H.264] (сезон 1-2, серии 1-12 из 12 + Special)
Производство: Великобритания, США / BBC, HBO
Жанр: Драма, Комедия

Режиссер: Рики Джервэйс, Стивен Мерчант
Актеры: Рики Джервэйс, Эшли Дженсен, Стивен Мерчант, Шон Уильямсон, Шон Пай, Сара Мойле, Эндрю Бакли, Джэми Чэпман, Мартин Сэвадж, Гай Генри и др.

Описание:
«Массовка» — это сериал, рассказывающий о жизни безработного актёра по имени Энди Миллман, который всю жизнь мечтал пробиться в большое кино, но пока лишь добился места в массовке. Он пытается пойти дальше, но ему постоянно не везёт…



Продолжительность: ~00:28:00 серия
Качество видео: DVDRip, HDTVRip
Перевод: Многоголосый закадровый, профессиональный - ОРТ (1-2 сезон); одноголосый закадровый, любительский - liosaa (Special)
Субтитры: Отсутствуют

Видео: AVC/H.264, 716x572@1018x572, ~1510 Kbps
Аудио #1: AC3, 2 ch, 192 Kbps — русский, многоголосый закадровый
Аудио #2: AC3, 2 ch, 192 Kbps — английский

Mediainfo:

1-2 сезон:


Общее
Уникальный идентификатор : 217248040555845654773431675327450879887 (0xA370735EE2D1685A920EDDA4E9B6978F)
Полное имя : E:\Extras\Extras S01\Extras.S01E01.DVDRip-AVC.Rus.Eng.mkv
Формат : Matroska
Версия формата : Version 4 / Version 2
Размер файла : 394 Мбайт
Продолжительность : 29 м. 4 с.
Общий поток : 1896 Кбит/сек
Дата кодирования : UTC 2017-08-27 18:02:29
Программа кодирования : mkvmerge v11.0.0 ('Alive') 64bit
Библиотека кодирования : libebml v1.3.4 + libmatroska v1.4.5

Видео
Идентификатор : 1
Формат : AVC
Формат/Информация : Advanced Video Codec
Профиль формата : High@L3.1
Параметр CABAC формата : Да
Параметр ReFrames формата : 11 кадров
Идентификатор кодека : V_MPEG4/ISO/AVC
Продолжительность : 29 м. 3 с.
Битрейт : 1510 Кбит/сек
Ширина : 716 пикселей
Высота : 572 пикселя
Соотношение сторон : 16:9
Соотношение сторон в оригинале : 5:4
Режим частоты кадров : Постоянный
Частота кадров : 25,000 кадров/сек
Цветовое пространство : YUV
Субдискретизация насыщенности : 4:2:0
Битовая глубина : 8 бит
Тип развёртки : Прогрессивная
Бит/(Пиксели*Кадры) : 0.147
Размер потока : 314 Мбайт (80%)
Библиотека кодирования : x264 core 64 r988 41c9e22
Настройки программы : cabac=1 / ref=11 / deblock=1:-2:-2 / analyse=0x3:0x113 / me=umh / subme=7 / psy_rd=1.0:1.0 / brdo=1 / mixed_ref=1 / me_range=32 / chroma_me=1 / trellis=2 / 8x8dct=1 / cqm=0 / deadzone=21,11 / chroma_qp_offset=-4 / threads=6 / nr=0 / decimate=0 / mbaff=0 / bframes=3 / b_pyramid=1 / b_adapt=2 / b_bias=0 / direct=3 / wpredb=1 / bime=1 / keyint=250 / keyint_min=25 / scenecut=40(pre) / rc=2pass / bitrate=1510 / ratetol=1.0 / qcomp=0.60 / qpmin=10 / qpmax=51 / qpstep=4 / cplxblur=20.0 / qblur=0.5 / vbv_maxrate=14000 / vbv_bufsize=14000 / ip_ratio=1.40 / pb_ratio=1.30 / aq=1:1.00
Язык : English
Default : Да
Forced : Нет

Аудио #1
Идентификатор : 2
Формат : AC-3
Формат/Информация : Audio Coding 3
Расширение режима : CM (complete main)
Параметр Endianness формата : Big
Идентификатор кодека : A_AC3
Продолжительность : 29 м. 4 с.
Вид битрейта : Постоянный
Битрейт : 192 Кбит/сек
Каналы : 2 канала
Расположение каналов : Front: L R
Частота : 48,0 КГц
Частота кадров : 31,250 кадров/сек (1536 spf)
Битовая глубина : 16 бит
Метод сжатия : С потерями
Размер потока : 39,9 Мбайт (10%)
Язык : Russian
Default : Да
Forced : Нет

Аудио #2
Идентификатор : 3
Формат : AC-3
Формат/Информация : Audio Coding 3
Расширение режима : CM (complete main)
Параметр Endianness формата : Big
Идентификатор кодека : A_AC3
Продолжительность : 29 м. 4 с.
Вид битрейта : Постоянный
Битрейт : 192 Кбит/сек
Каналы : 2 канала
Расположение каналов : Front: L R
Частота : 48,0 КГц
Частота кадров : 31,250 кадров/сек (1536 spf)
Битовая глубина : 16 бит
Метод сжатия : С потерями
Размер потока : 39,9 Мбайт (10%)
Язык : English
Default : Нет
Forced : Нет

Special:

Общее
Полное имя : E:\Extras\Extras.Christmas.Special.HDTVRip.Rus.Eng.avi
Формат : AVI
Формат/Информация : Audio Video Interleave
Размер файла : 777 Мбайт
Продолжительность : 1 ч. 21 м.
Режим общего битрейта : Переменный
Общий поток : 1338 Кбит/сек
Программа кодирования : VirtualDubMod 1.5.10.2 (build 2540/release)
Библиотека кодирования : VirtualDubMod build 2540/release

Видео
Идентификатор : 0
Формат : MPEG-4 Visual
Профиль формата : Advanced Simple@L5
Параметр BVOP формата : 1
Параметр QPel формата : Нет
Параметр GMC формата : Без точки перехода
Параметр матрицы формата : Выборочная
Идентификатор кодека : XVID
Идентификатор кодека/Подсказка : XviD
Продолжительность : 1 ч. 21 м.
Битрейт : 1078 Кбит/сек
Ширина : 624 пикселя
Высота : 352 пикселя
Соотношение сторон : 16:9
Частота кадров : 25,000 кадров/сек
Цветовое пространство : YUV
Субдискретизация насыщенности : 4:2:0
Битовая глубина : 8 бит
Тип развёртки : Прогрессивная
Метод сжатия : С потерями
Бит/(Пиксели*Кадры) : 0.196
Размер потока : 626 Мбайт (81%)
Библиотека кодирования : XviD 1.2.0.dev47 (UTC 2006-11-01)

Аудио #1
Идентификатор : 1
Формат : MPEG Audio
Версия формата : Version 1
Профиль формата : Layer 3
Режим : Joint stereo
Расширение режима : MS Stereo
Идентификатор кодека : 55
Идентификатор кодека/Подсказка : MP3
Продолжительность : 1 ч. 21 м.
Вид битрейта : Постоянный
Битрейт : 128 Кбит/сек
Каналы : 2 канала
Частота : 48,0 КГц
Метод сжатия : С потерями
Размер потока : 74,3 Мбайт (10%)
Выравнивание : Соединение по промежуткам
Продолжительность промежутка : 40 мс. (1,00 видеокадр)
Время предзагрузки промежутка : 504 мс.

Аудио #2
Идентификатор : 2
Формат : MPEG Audio
Версия формата : Version 1
Профиль формата : Layer 3
Режим : Joint stereo
Расширение режима : MS Stereo
Идентификатор кодека : 55
Идентификатор кодека/Подсказка : MP3
Продолжительность : 1 ч. 21 м.
Вид битрейта : Переменный
Битрейт : 115 Кбит/сек
Каналы : 2 канала
Частота : 48,0 КГц
Метод сжатия : С потерями
Размер потока : 66,6 Мбайт (9%)
Выравнивание : Соединение по промежуткам
Продолжительность промежутка : 24 мс. (0,60 видеокадр)
Время предзагрузки промежутка : 471 мс.

Список серий:

Сезон 1
1. Бен Стиллер - Ben Stiller
2. Росс Кемп - Ross Kemp & Vinnie Jones
3. Кейт Уинслет - Kate Winslet
4. Лес Дэннис - Les Dennis
5. Сэмюэл Л. Джексон - Samuel L Jackson
6. Патрик Стюарт - Patrick Stewart
Сезон 2
1. Орландо Блум - Orlando Bloom
2. Дэвид Боуи - David Bowie
3. Дэниэл Рэдклифф - Daniel Radcliffe
4. Крис Мартин - Chris Martin
5. Иэн МакКеллен - Sir Ian McKellen
6. Джонатан Росс -Jonathan Ross
Special
Массовка (Рождественская) - The Extra Special Series Finale
Скриншоты:


Все одноименные релизы в Клубе

Смотреть Online

http://moonwalk.cc/serial/e9c22fd2d97d0928c13335efb984d2bf/iframe
Детали торрента:
Название:Массовка / Extras (2005-2007) DVDRip, HDTVRip [H.264] (сезон 1-2, серии 1-12 из 12 + Special) ОРТ, liosaa
Дата добавления:28 Авг 2017 19:53:50
Размер:5,32 GB
Раздают:2
Качают:0
Форум:Зарубежные сериалы

All rights reserved © 2015-2018