TORRENTS43.COM

Скачать Новая Фабрика Звезд (2017) WEB-DLRip (1 выпуск)


Новая Фабрика Звезд. Концерт-открытие (2017) WEB-DLRip
Телекомпания: МУЗ-ТВ
Жанр: ТВ-шоу, концерт
Сайт проекта

Ведущие: Ксения Собчак
Участники: Конкурсанты и звёзды Российской эстрады

Описание:
Легендарный музыкальный проект возвращается на большие экраны! Смотри грандиозный концерт-открытие "Новой Фабрики Звёзд" с участием самых топовых артистов страны. Продюсер Проекта - Виктор Дробыш представляет 16 юных талантов, которые были отобраны из 15 000 претендентов. Именно им в течение ближайших 4 месяцев предстоит пройти интенсивное обучение азам шоу-бизнесса, завоевать любовь зрителей и стать новыми звёздами.

Продолжительность: 01:37:06
Качество видео: WEB-DLRip

Видео: Xvid, 720x400 (16:9), ~1648 kbps
Аудио: AC3, 2 ch, 192 kbps

Mediainfo:


General
Complete name : D:\0_RUSSIAN\ФИЛЬМЫ\Novaya Fabrika zvezd 2017 WEB-DL 1080\Novaya Fabrika.zvezd 2017 WEB-DLRip\Novaya Fabrika zvezd_otkrytie WEB-DLRip.avi
Format : AVI
Format/Info : Audio Video Interleave
File size : 1.25 GiB
Duration : 1 h 37 min
Overall bit rate : 1 850 kb/s
Writing application : VirtualDubMod 1.5.10.3 | www.virtualdub-fr.org || (build 2550/release)
Writing library : VirtualDubMod build 2550/release

Video
ID : 0
Format : MPEG-4 Visual
Format profile : Advanced Simple@L5
Format settings, BVOP : 1
Format settings, QPel : No
Format settings, GMC : No warppoints
Format settings, Matrix : Custom
Codec ID : XVID
Codec ID/Hint : XviD
Duration : 1 h 37 min
Bit rate : 1 648 kb/s
Width : 720 pixels
Height : 400 pixels
Display aspect ratio : 16:9
Frame rate : 25.000 FPS
Color space : YUV
Chroma subsampling : 4:2:0
Bit depth : 8 bits
Scan type : Progressive
Compression mode : Lossy
Bits/(Pixel*Frame) : 0.229
Stream size : 1.12 GiB (89%)
Writing library : XviD 73

Audio
ID : 1
Format : AC-3
Format/Info : Audio Coding 3
Format settings, Endianness : Big
Codec ID : 2000
Duration : 1 h 37 min
Bit rate mode : Constant
Bit rate : 192 kb/s
Channel(s) : 2 channels
Channel positions : Front: L R
Sampling rate : 48.0 kHz
Frame rate : 31.250 FPS (1536 spf)
Bit depth : 16 bits
Compression mode : Lossy
Stream size : 133 MiB (10%)
Alignment : Split accross interleaves
Interleave, duration : 40 ms (1.00 video frame)
Interleave, preload duratio : 500 ms
Service kind : Complete Main

Об участниках и проекте:

Премьера «Новой Фабрики звезд» состоялась в эфире «Муз-ТВ» 2 сентября 2017 года. В первом выпуске были представлены 16 конкурсантов. В их число вошли младшая дочь Виктора Салтыкова, выступающая под псевдонимом Аня Мун, рэп-музыкант Эльман Зейналов, юная белорусская звезда Зина Куприянович (лауреат «Детской новой волны», «Славянского базара», финалистка национального отбора «Детского Евровидения», озвучившая также главную героиню мультфильма «Моана» в российском прокате), двое участников третьего сезона шоу «Голос» Ульяна Синецкая и Самвел Варданян, участник четвертого сезона украинской версии «X-Factor» Даниил Рувинский, участник слепых прослушиваний пятого «Голоса» Владимир Идиатуллин и участница прослушиваний третьего «Голоса» белорусская телеведущая Марта Жданюк.

Запуск проекта ознаменовался концертом «Новая Фабрика звезд. Открытие», в рамках которого молодые дарования исполнили дуэты с уже состоявшимися артистами: Валерией, Кристиной Орбакайте, Сергеем Лазаревым, Ани Лорак, групппой «Руки вверх!», Наргиз Закировой, Александром Реввой, Анна Седокова, группой «Градусы», Алексеевым, Славой и другими.

Продюсерами и наставниками проекта, которые будут сидеть в жюри каждого отчетного концерта, стали музыкальный продюсер «Новой Фабрики звезд» Виктор Дробыш, генеральный продюсер «ВайТ Медиа» Юлия Сумачёва, президент «ЮТВ холдинга» Андрей Димитров, генеральный директор «МУЗ-ТВ» Арман Давлетяров, преподаватель по хореографии Алла Духова, преподаватель по вокалу Владимир Коробка, преподаватель по актерскому мастерству Герман Сидаков, стилисты Ирина и Милана Богатырёвы.

После съемок первого отчетного концерта 16 участников «Новой Фабрики звезд» заселились в «звездный дом» - двухэтажный подмосковный особняк площадью 1500 квадратных метров, под крышей которого им предстоит провести 16 недель подряд, 120 дней под прицелами 42 камер 24 часа в сутки. В программе занятия вокалом, хореографией, актерским мастерством, танцами, фитнессом, работа со стилистами и визажистами, мастер-классы со звездами, работа в звукозаписывающей студии.

За ежедневной жизнью фабрикантов в доме можно будет следить с понедельника по пятницу в «Звездных дневниках» на «Муз-ТВ», вести которые будут Артем Шалимов и Георгий Иващенко. Раз в неделю в рамках отчетных концертов, фабрикантам предстоит доказывать свои успехи и право оставаться участником проекта. Начиная со второго отчетного концерта, который выйдет в эфир 9 сентября, жюри проекта будет выдвигать трех кандидатов среди фабрикантов на выбывание. Но каждую неделю покидать проект будет только один участник: двух других спасут жюри и сами ребята-фабриканты.

Источник: intermedia.ru
Скриншоты:


Все одноименные релизы в Клубе
Детали торрента:
Название:Новая Фабрика Звезд (2017) WEB-DLRip (1 выпуск)
Дата добавления:03 Сен 2017 08:52:21
Размер:1,25 GB
Раздают:1
Качают:0
Форум:Музыкальные шоу

All rights reserved © 2015-2018