TORRENTS43.COM

Скачать Маленькое зло / Little Evil (2017) WEBRip [MVO] [AD]


Маленькое зло / Little Evil (2017) WEBRip
Производство: США, Bluegrass Films, Mandalay Pictures
Жанр: Комедия, Ужасы

Режиссер: Илай Крэйг
Актеры: Эванджелин Лилли, Адам Скотт, Бриджет Эверетт, Клэнси Браун, Тайлер Лабин, Дональд Фэйсон, Крис Д’Елия, Кайл Борнхаймер, Анита Фармер Бергман, Ким Эванс

Описание:
Когда Гари женился на Саманте, он стал отчимом её шестилетнего сынишки. Всё бы ничего, но мужчина осознал, что мальчуган — это сам Антихрист.


Дата мировой премьеры: 1 сентября 2017

Продолжительность: 01:36:16
Качество видео: WEBRip
Перевод: Многоголосый закадровый (MUZOBOZ)
Субтитры: отсутствуют
Реклама: Присутствуют голосовые, текстовые и видео вставки рекламы

Видео: Xvid, 720x304, ~1639 kbps
Аудио: AC3, 2 ch, 384 Kbps

Mediainfo:


General
Complete name : D:\Zona Downloads\Little.evil.2017.P.WEB-DLRip.14OOMB.avi
Format : AVI
Format/Info : Audio Video Interleave
File size : 1.37 GiB
Duration : 1 h 36 min
Overall bit rate : 2 033 kb/s
Writing application : VirtualDubMod 1.5.10.2 (build 2540/release)
Writing library : VirtualDubMod build 2540/release

Video
ID : 0
Format : MPEG-4 Visual
Format profile : Advanced Simple@L5
Format settings, BVOP : 2
Format settings, QPel : No
Format settings, GMC : No warppoints
Format settings, Matrix : Default (MPEG)
Codec ID : XVID
Codec ID/Hint : XviD
Duration : 1 h 36 min
Bit rate : 1 640 kb/s
Width : 720 pixels
Height : 304 pixels
Display aspect ratio : 2.35:1
Frame rate : 23.976 (24000/1001) FPS
Color space : YUV
Chroma subsampling : 4:2:0
Bit depth : 8 bits
Scan type : Progressive
Compression mode : Lossy
Bits/(Pixel*Frame) : 0.312
Stream size : 1.10 GiB (81%)
Writing library : XviD 1.2.1 (UTC 2008-12-04)

Audio
ID : 1
Format : AC-3
Format/Info : Audio Coding 3
Format settings, Endianness : Big
Codec ID : 2000
Duration : 1 h 36 min
Bit rate mode : Constant
Bit rate : 384 kb/s
Channel(s) : 2 channels
Channel positions : Front: L R
Sampling rate : 48.0 kHz
Frame rate : 31.250 FPS (1536 SPF)
Bit depth : 16 bits
Compression mode : Lossy
Stream size : 264 MiB (19%)
Alignment : Split accross interleaves
Interleave, duration : 42 ms (1.00 video frame)
Interleave, preload duratio : 500 ms
Service kind : Complete Main
Скриншоты:


Все одноименные релизы в Клубе

Смотреть Online

http://moonwalk.cc/video/616d137e8b47ad0b/iframe
Детали торрента:
Название:Маленькое зло / Little Evil (2017) WEBRip [MVO] [AD]
Дата добавления:03 Сен 2017 21:12:04
Размер:1,37 GB
Раздают:6
Качают:0
Форум:Новинки с Рекламой

All rights reserved © 2015-2018