TORRENTS43.COM

Скачать Randy Brecker & Eliane Elias - Amanda (1985) Passport Records [FLAC|Lossless|tracks + .cue] <World Fusion, Latin Jazz>


Randy Brecker & Eliane Elias - Amanda (1985) Passport Records
Жанр: World Fusion, Latin Jazz
Издание: Passport Records - PJCD 88013
Продолжительность: 00:40:50

Кодек: FLAC (tracks+.cue)
Битрейт: Lossless
Источник (релизер): TestTickles
Страна-производитель диска: Sweden
Наличие сканов в содержимом раздачи: да

Треклист:

01. Splash [05:24]
02. Para Nada (For Nothing) [07:10]
03. Pandamandium [06:23]
04. Samba De Bamba [08:17]
05. Amandamada [04:48]
06. Guaruja [08:52]

Отчёт EAC:


Exact Audio Copy V1.1 from 23. June 2015

EAC extraction logfile from 19. March 2017, 11:28

Randy Brecker & Eliane Elias / Amanda

Used drive : TEAC DVD-ROM DV-28SW Adapter: 1 ID: 0

Read mode : Secure
Utilize accurate stream : Yes
Defeat audio cache : Yes
Make use of C2 pointers : No

Read offset correction : 6
Overread into Lead-In and Lead-Out : No
Fill up missing offset samples with silence : Yes
Delete leading and trailing silent blocks : No
Null samples used in CRC calculations : Yes
Used interface : Native Win32 interface for Win NT & 2000
Gap handling : Appended to previous track

Used output format : Internal WAV Routines
Sample format : 44.100 Hz; 16 Bit; Stereo

TOC of the extracted CD

Track | Start | Length | Start sector | End sector
---------------------------------------------------------
1 | 0:00.00 | 5:23.02 | 0 | 24226
2 | 5:23.02 | 7:09.53 | 24227 | 56454
3 | 12:32.55 | 6:22.10 | 56455 | 85114
4 | 18:54.65 | 8:16.32 | 85115 | 122346
5 | 27:11.22 | 4:47.03 | 122347 | 143874
6 | 31:58.25 | 8:51.40 | 143875 | 183739

Track 1

Filename C:\My Documents\My FLAC\Randy Brecker & Eliane Elias - Amanda (1986) [FLAC] {Passport Jazz}\01 - Splash.wav

Pre-gap length 0:00:02.00

Peak level 88.8 %
Extraction speed 2.6 X
Track quality 99.9 %
Test CRC 08EE957D
Copy CRC 08EE957D
Accurately ripped (confidence 5) [3FD027E8] (AR v2)
Copy OK

Track 2

Filename C:\My Documents\My FLAC\Randy Brecker & Eliane Elias - Amanda (1986) [FLAC] {Passport Jazz}\02 - Para Nada (For Nothing).wav

Pre-gap length 0:00:02.45

Peak level 72.6 %
Extraction speed 3.5 X
Track quality 100.0 %
Test CRC 3D066720
Copy CRC 3D066720
Accurately ripped (confidence 5) [854A0114] (AR v2)
Copy OK

Track 3

Filename C:\My Documents\My FLAC\Randy Brecker & Eliane Elias - Amanda (1986) [FLAC] {Passport Jazz}\03 - Pandamandium.wav

Pre-gap length 0:00:01.38

Peak level 87.5 %
Extraction speed 3.5 X
Track quality 99.9 %
Test CRC 66C686C5
Copy CRC 66C686C5
Accurately ripped (confidence 5) [7DFED51B] (AR v2)
Copy OK

Track 4

Filename C:\My Documents\My FLAC\Randy Brecker & Eliane Elias - Amanda (1986) [FLAC] {Passport Jazz}\04 - Samba De Bamba.wav

Pre-gap length 0:00:01.08

Peak level 90.8 %
Extraction speed 4.3 X
Track quality 100.0 %
Test CRC 538D166B
Copy CRC 538D166B
Accurately ripped (confidence 5) [983E8C1B] (AR v2)
Copy OK

Track 5

Filename C:\My Documents\My FLAC\Randy Brecker & Eliane Elias - Amanda (1986) [FLAC] {Passport Jazz}\05 - Amandamada.wav

Pre-gap length 0:00:02.25

Peak level 66.1 %
Extraction speed 4.5 X
Track quality 100.0 %
Test CRC F8C307DE
Copy CRC F8C307DE
Accurately ripped (confidence 5) [BA6DB47D] (AR v2)
Copy OK

Track 6

Filename C:\My Documents\My FLAC\Randy Brecker & Eliane Elias - Amanda (1986) [FLAC] {Passport Jazz}\06 - Guarujá.wav

Pre-gap length 0:00:02.50

Peak level 87.1 %
Extraction speed 4.7 X
Track quality 99.9 %
Test CRC 0DD7A718
Copy CRC 0DD7A718
Accurately ripped (confidence 5) [DE53E500] (AR v2)
Copy OK

All tracks accurately ripped

No errors occurred

End of status report

---- CUETools DB Plugin V2.1.6

[CTDB TOCID: nKg7mVBwMsLZqVCIAnz7tPpxcdM-] found
Submit result: nKg7mVBwMsLZqVCIAnz7tPpxcdM- has been confirmed
Track | CTDB Status
1 | (1/1) Accurately ripped
2 | (1/1) Accurately ripped
3 | (1/1) Accurately ripped
4 | (1/1) Accurately ripped
5 | (1/1) Accurately ripped
6 | (1/1) Accurately ripped

==== Log checksum B6E88EE8AD6694D29DC671A9C7464AB780EA8DA4E9664D9AABE3C917199E3DBC ====

Cue Sheet (.cue):


REM GENRE Jazz
REM DATE 1986
REM DISCID 40099106
REM COMMENT "ExactAudioCopy v1.1"
CATALOG 0000000000000
PERFORMER "Randy Brecker & Eliane Elias"
TITLE "Amanda"
FILE "01 - Splash.wav" WAVE
TRACK 01 AUDIO
TITLE "Splash"
PERFORMER "Randy Brecker & Eliane Elias"
INDEX 01 00:00:00
TRACK 02 AUDIO
TITLE "Para Nada (For Nothing)"
PERFORMER "Randy Brecker & Eliane Elias"
INDEX 00 05:20:32
FILE "02 - Para Nada (For Nothing).wav" WAVE
INDEX 01 00:00:00
TRACK 03 AUDIO
TITLE "Pandamandium"
PERFORMER "Randy Brecker & Eliane Elias"
INDEX 00 07:08:15
FILE "03 - Pandamandium.wav" WAVE
INDEX 01 00:00:00
TRACK 04 AUDIO
TITLE "Samba De Bamba"
PERFORMER "Randy Brecker & Eliane Elias"
INDEX 00 06:21:02
FILE "04 - Samba De Bamba.wav" WAVE
INDEX 01 00:00:00
TRACK 05 AUDIO
TITLE "Amandamada"
PERFORMER "Randy Brecker & Eliane Elias"
INDEX 00 08:14:07
FILE "05 - Amandamada.wav" WAVE
INDEX 01 00:00:00
TRACK 06 AUDIO
TITLE "Guaruja"
PERFORMER "Randy Brecker & Eliane Elias"
INDEX 00 04:44:28
FILE "06 - Guaruja.wav" WAVE
INDEX 01 00:00:00

Отчёт auCDtect Task manager:


-----------------------

DON'T MODIFY THIS FILE

-----------------------

PERFORMER: auCDtect Task Manager, ver. 1.6.0 RC1 build 1.6.0.1
Copyright (c) 2008-2010 y-soft. All rights reserved
http://y-soft.org

ANALYZER: auCDtect: CD records authenticity detector, version 0.8.2
Copyright (c) 2004 Oleg Berngardt. All rights reserved.
Copyright (c) 2004 Alexander Djourik. All rights reserved.

FILE: 06 - Guarujá.flac
Size: 56962140 Hash: 011938421CF7CCF362E0D2E1D060A390 Accuracy: -m0
Conclusion: CDDA 100%
Signature: 878C9329EDE1BB65E8CF2D4DAC496DC2A095AF78
FILE: 05 - Amandamada.flac
Size: 28387141 Hash: 517E37770A9CD26963AFB934B6345C90 Accuracy: -m0
Conclusion: CDDA 100%
Signature: CD4FAF963D2ECF15804E3EB0B966358E4858A96B
FILE: 04 - Samba De Bamba.flac
Size: 58075230 Hash: 6D5841347CECAA6D92006C4B4BDEFD7F Accuracy: -m0
Conclusion: CDDA 100%
Signature: 218E642AC55872C9F782837884C43995BC7FBBA4
FILE: 03 - Pandamandium.flac
Size: 42564825 Hash: 1EE46AF3FC306C333FE897DC748FEA1D Accuracy: -m0
Conclusion: CDDA 100%
Signature: FB13AD1EC10D509C4AEA4E35C8BBE610B18969A6
FILE: 02 - Para Nada (For Nothing).flac
Size: 45026643 Hash: F4437E3A90C9A0303D87D8AB9B745120 Accuracy: -m0
Conclusion: MPEG 85%
Signature: FD92F5A3792505A17273A5A8BAAF0793DC0C7EDD
FILE: 01 - Splash.flac
Size: 36737057 Hash: 8B8BF056B1938366C7557AB8C6FBEAD0 Accuracy: -m0
Conclusion: CDDA 100%
Signature: E83D7C8990FB3356456CB685D2C03BA064247F2C

Спектрограмма:



Состав

Eliane Elias - piano, keyboards, flute, lead and background vocals
Randy Brecker - trumpet, electric trumpet
Michael Brecker - tenor saxophone, alto flute, background vocals
Dave Weckl - drums
Danny Goetlib - drums
Will Lee - bass, background vocals
Manolo Badrena - percussions
Mark Egan - bass
Jeff Minorov - guitars
Sadao Watanabe - alto saxophone
Cyro Baptista - percussions
Chris Parker - drums
Barry Finnerty - guitar, background vocals
Детали торрента:
Название:Randy Brecker & Eliane Elias - Amanda (1985) Passport Records [FLAC|Lossless|tracks + .cue] <World Fusion, Latin Jazz>
Дата добавления:06 Сен 2017 06:15:36
Размер:273 MB
Раздают:1
Качают:0
Форум:Jazz (Lossless)

All rights reserved © 2015-2018