TORRENTS43.COM

Скачать Несносный мачо / Gun Shy (2017) WEB-DL [H.264/1080p-LQ] [EN / EN Sub]


Несносный мачо / Gun Shy (2017) WEB-DL [H.264/1080p-LQ] [EN / EN Sub]
Производство: Великобритания, Salty Film
Жанр: Боевик, Приключения, Комедия

Режиссер: Саймон Уэст
Продюсер: Джиб Полемус, Гарри Стортон, Саймон Уэст, ...
Актеры: Антонио Бандерас, Ольга Куриленко, Бен Кура, Марк Вэлли, Эшлин Лофтус, Дэвид Митчелл, Джесси Джонсон, Джереми Свифт, Миланка Брукс, Элли Гоффе ...

Описание:
Генри по прозвищу Бес — популярная рок-звезда со всеми вытекающими. Правда, дни его славы остались в прошлом. Чтобы развлечься, он отправляется на отдых в Чили. И развлечения не заставляют себя долго ждать: местные пираты похищают его красавицу жену и просят за нее выкуп в 1 млн. долларов. Для Генри выплатить эти деньги, как… дать на чай официанту. Он уже собирается идти в банк, как в дело вмешивается упрямые федералы, которые запрещают ему идти на поводу у похитителей. Теперь Генри — человеку, который в жизни ни за кого не отвечал, включая себя самого — придется придумать план, как обмануть федералов и вызволить свою жену.



Рейтинг MPAA: R (лицам до 17 лет обязательно присутствие взрослого)
Премьера (мир): 8 сентября 2017, ...

Продолжительность: 01:31:44
Качество видео: WEB-DL 1080p
Перевод: Отсутствует
Язык озвучки: Английский
Субтитры: Английские

Видео: AVC, 1912x792 (2.40:1), 23.976 fps, 4 435 Kbps (0.122 bit/pixel)
Аудио: AC-3, 48.0 KHz, 6 ch, 384 Kbps, CBR (English)

Mediainfo:

General
Complete name : Gun.Shy.2017.1080p.WEB-DL.DD5.1.H264.mkv
Format : Matroska
Format version : Version 4 / Version 2
File size : 3.15 GiB
Duration : 1 h 31 min
Overall bit rate : 4 917 kb/s
Encoded date : UTC 2017-09-08 08:02:13
Writing application : mkvmerge v15.0.0 ('Duel with the Devil') 64-bit
Writing library : libebml v1.3.5 + libmatroska v1.4.5

Video
ID : 1
Format : AVC
Format/Info : Advanced Video Codec
Format profile : High@L4
Format settings, CABAC : Yes
Format settings, RefFrames : 5 frames
Codec ID : V_MPEG4/ISO/AVC
Duration : 1 h 31 min
Bit rate : 4 435 kb/s
Width : 1 912 pixels
Height : 792 pixels
Display aspect ratio : 2.40:1
Frame rate mode : Constant
Frame rate : 23.976 (24000/1001) FPS
Color space : YUV
Chroma subsampling : 4:2:0
Bit depth : 8 bits
Scan type : Progressive
Bits/(Pixel*Frame) : 0.122
Stream size : 2.84 GiB (90%)
Language : English
Default : Yes
Forced : No
Color range : Limited
Color primaries : BT.709
Transfer characteristics : BT.709
Matrix coefficients : BT.709

Audio
ID : 2
Format : AC-3
Format/Info : Audio Coding 3
Format settings, Endianness : Big
Codec ID : A_AC3
Duration : 1 h 31 min
Bit rate mode : Constant
Bit rate : 384 kb/s
Channel(s) : 6 channels
Channel positions : Front: L C R, Side: L R, LFE
Sampling rate : 48.0 kHz
Frame rate : 31.250 FPS (1536 SPF)
Bit depth : 16 bits
Compression mode : Lossy
Delay relative to video : -42 ms
Stream size : 252 MiB (8%)
Language : English
Service kind : Complete Main
Default : Yes
Forced : No

Text
ID : 3
Format : UTF-8
Codec ID : S_TEXT/UTF8
Codec ID/Info : UTF-8 Plain Text
Language : English
Default : Yes
Forced : No

Menu
00:00:00.000 : en:1
00:02:56.000 : en:2
00:15:08.000 : en:3
00:27:19.000 : en:4
00:39:20.000 : en:5
00:51:20.000 : en:6
01:01:28.000 : en:7
01:13:32.000 : en:8
01:24:33.000 : en:9
Скриншоты:

Дополнительные скриншоты:




Все одноименные релизы в Клубе
Детали торрента:
Название:Несносный мачо / Gun Shy (2017) WEB-DL [H.264/1080p-LQ] [EN / EN Sub]
Дата добавления:08 Сен 2017 17:43:44
Размер:3,15 GB
Раздают:
Качают:0
Форум:Фильмы в оригинале

All rights reserved © 2015-2018