TORRENTS43.COM

Скачать Штрих / Sztos (1997) DVDRip [PL]


Штрих / Sztos (1997) DVDRip [PL]
Производство: Польша / Telewizja Polska (TVP)
Жанр: Боевик, Комедия, Криминал

Режиссер: Олаф Любашенко
Актеры: Цезары Пазура, Ян Новицкий, Моника Амброзиак, Хенрик Биста, Агнешка Бранска, Станислав Брудны, Мариуш Чайка, Томаш Дедек, Олаф Деригласоф, Эва Гаврилюк Сопот и др.

Описание:
Сопот, начало 70-х. Только что вышедший из тюрьмы тридцатилетний пройдоха «Сынок» встречается с завзятым игроком Эриком. Они начинают проворачивать совместные дела. Во время одной из них Эрик сам становится жертвой мошенников… Фильм концентрируется на отношениях «мастер — ученик».


Возраст: 18+ (зрителям, достигшим 18 лет. запрещено для детей)

Продолжительность: 01:26:36
Качество видео: DVDRip
Перевод: Отсутствует
Язык озвучки: Польский
Субтитры: Отсутствуют

Видео: Xvid, 704x448, ~1956 Kbps
Аудио: AC3, 6 ch, 448 Kbps - Польский

Mediainfo:


Complete name : Sztos.1997.PL.DVDRip.avi
Format : AVI
Format/Info : Audio Video Interleave
File size : 1.46 GiB
Duration : 1 h 26 min
Overall bit rate : 2 411 kb/s
Writing application : VirtualDubMod 1.5.4.1 (build 2178/release)
Writing library : VirtualDubMod build 2178/release

Video
ID : 0
Format : MPEG-4 Visual
Format profile : Advanced Simple@L5
Format settings : BVOP1 / Custom Matrix
Format settings, BVOP : 1
Format settings, QPel : No
Format settings, GMC : No warppoints
Format settings, Matrix : Custom
Codec ID : XVID
Codec ID/Hint : XviD
Duration : 1 h 26 min
Bit rate : 1 956 kb/s
Width : 704 pixels
Height : 448 pixels
Display aspect ratio : 16:10
Frame rate : 25.000 FPS
Color space : YUV
Chroma subsampling : 4:2:0
Bit depth : 8 bits
Scan type : Progressive
Compression mode : Lossy
Bits/(Pixel*Frame) : 0.248
Stream size : 1.18 GiB (81%)
Writing library : XviD 1.2.1 (UTC 2008-12-04)

Audio
ID : 1
Format : AC-3
Format/Info : Audio Coding 3
Format settings, Endianness : Big
Codec ID : 2000
Duration : 1 h 26 min
Bit rate mode : Constant
Bit rate : 448 kb/s
Channel(s) : 6 channels
Channel positions : Front: L C R, Side: L R, LFE
Sampling rate : 48.0 kHz
Frame rate : 31.250 FPS (1536 SPF)
Bit depth : 16 bits
Compression mode : Lossy
Stream size : 278 MiB (19%)
Alignment : Split accross interleaves
Interleave, duration : 96 ms (2.40 video frames)
Interleave, preload duratio : 96 ms
Language : Polish
Service kind : Complete Main
Скриншоты:


Все одноименные релизы в Клубе

Смотреть Online

http://moonwalk.cc/video/1d391651de546dc9/iframe
Детали торрента:
Название:Штрих / Sztos (1997) DVDRip [PL]
Дата добавления:05 Окт 2017 17:18:11
Размер:1,46 GB
Раздают:6
Качают:1
Форум:Фильмы в оригинале

All rights reserved © 2015-2018