TORRENTS43.COM

Скачать Воспитание и выгул собак и мужчин (2017) WEB-DL [H.264/1080p-LQ] (серии 1-2 из 2)


Воспитание и выгул собак и мужчин (2017) WEB-DL [H.264/1080p-LQ] (серии 1-2 из 2)
Производство: Россия, Украина, Польша
Жанр: мелодрама

Режиссер: Александр Грабарь
Актеры: Дана Абызова, Илья Алексеев, Александр Наумов, Антонина Макарчук, Алексей Смолка, Михаил Полицеймако, Евгения Нохрина, Нина Нижерадзе, Лев Сомов, Любовь Тимошевская и др.

Описание:
Соня — талантливый ветеринар. Её кредо: чем больше узнаю мужчин, тем больше люблю собак, по-этому в личных отношениях — замкнута, застегнута «на все пуговицы». Соню со скандалом увольняют из ветеринарной клиники. Теперь она подрабатывает выгулом собак и помогает приюту для бездомных животных. Артем, обаятельный мажористый раздолбай, звезда спорта...


Возраст: 12+ (зрителям, достигшим 12 лет)
Дата российской премьеры: 6 октября 2017

Релиз от: Алехаndr

Продолжительность: ~00:47:00 серия
Качество видео: WEB-DL

Видео: AVC/H.264, 1920x1080 (16:9), ~2410 Kbps
Аудио: AC3, 2 ch, 192 Kbps

Mediainfo:


Общее
Уникальный идентификатор : 320506153594117187646902341304675140159 (0xF11F3D674024A0B64BC8E835ED8B023F)
Полное имя : F:\Воспитание и выгул собак и мужчин (2017).by.Алехаndr\Серия 1.by.Алехаndr.mkv
Формат : Matroska
Версия формата : Version 4 / Version 2
Размер файла : 899 Мбайт
Продолжительность : 47 м. 19 с.
Общий поток : 2657 Кбит/сек
Программа кодирования : Lavf57.71.100
Библиотека кодирования : Lavf57.71.100
ErrorDetectionType : Per level 1

Видео
Идентификатор : 1
Формат : AVC
Формат/Информация : Advanced Video Codec
Профиль формата : High@L4
Настройки формата : CABAC / 3 Ref Frames
Параметр CABAC формата : Да
Параметр RefFrames формата : 3 кадра
Идентификатор кодека : V_MPEG4/ISO/AVC
Продолжительность : 47 м. 19 с.
Битрейт : 2412 Кбит/сек
Ширина : 1920 пикселей
Высота : 1080 пикселей
Соотношение сторон : 16:9
Режим частоты кадров : Постоянный
Частота кадров : 25,000 кадров/сек
Цветовое пространство : YUV
Субдискретизация насыщенности : 4:2:0
Битовая глубина : 8 бит
Тип развёртки : Прогрессивная
Бит/(Пиксели*Кадры) : 0.047
Размер потока : 816 Мбайт (91%)
Default : Да
Forced : Нет
Цветовой диапазон : Limited
Основные цвета : BT.709
Характеристики трансфера : BT.709
Коэффициенты матрицы : BT.709

Аудио
Идентификатор : 2
Формат : AC-3
Формат/Информация : Audio Coding 3
Параметр Endianness формата : Big
Идентификатор кодека : A_AC3
Продолжительность : 47 м. 19 с.
Вид битрейта : Постоянный
Битрейт : 192 Кбит/сек
Каналы : 2 канала
Расположение каналов : Front: L R
Частота : 44,1 КГц
Частота кадров : 28,711 кадров/сек (1536 SPF)
Битовая глубина : 16 бит
Метод сжатия : С потерями
Задержка видео : -40 мс.
Размер потока : 65,0 Мбайт (7%)
Язык : unknown
ServiceKind/String : Complete Main
Default : Да
Forced : Нет
Скриншоты:


Все одноименные релизы в Клубе

Смотреть Online

http://37.220.36.15/video/7eea323ec9abebdf/iframe
Детали торрента:
Название:Воспитание и выгул собак и мужчин (2017) WEB-DL [H.264/1080p-LQ] (серии 1-2 из 2)
Дата добавления:07 Окт 2017 14:57:28
Размер:1,78 GB
Раздают:1
Качают:0
Форум:Отечественные сериалы

All rights reserved © 2015-2018