TORRENTS43.COM

Скачать Just Because! / А просто так! [2017, TV, 12 ep] WEB-DL 720p Raw+Rus


Just Because! / А просто так!
Жанр: романтика, повседневность, школа
Тип: TV-сериал
Продолжительность: 12 эпизодов по 25 минут
Выпуск: c 05.10.2017 по 28.12.2017
Режиссер: Кобаяси Ацуси
Производство: Pine Jam
Информационные ссылки: AniDB || World Art || MAL || ANN
Релиз подготовлен студией Kansai
  • Тип озвучки: Многоголосая, закадровая

Описание:
В старшей школе, когда время уже близится к выпуску, кажется, что ничего уже не изменится, и до самого конца всё будет, как и раньше. Но, оказывается, что даже в жизни старшеклассников есть место кардинальным переменам. В привычную жизнь одного из третьих классов старшей школы ворвался новенький ученик. Новенький, да не для всех. Четыре года назад Эйта Изуми переехал в другой город и потерял все контакты со своими друзьями. И вот, он возвращается домой.

В новом классе Эйта обнаруживает своего лучшего друга ещё со времён средней школы, Харуто Сому, а также Мио Нацумэ, их одноклассницу. Трогательное воссоединение лучших друзей стало ярким пятном во всеобщей усердной подготовке ко вступительным экзаменам. Да и Мио тоже рада происходящему, ведь она всё это время, ещё со средней школы, хранила в своём сердце нежные, но не взаимные чувства. Перевод Эйты в новую школу стал большим событием, изменившим жизни не только всех его одноклассников, но и ребят из других классов.
Качество: WEB-DLRip | Энкод: HorribleSubs
Язык озвучки: Японский и Русский
Формат: MKV
Видео: x264, 1280x720, ~855 kbps, 23.976 fps
Аудио: AAC, 128 kbps, 44.1 kHz, 2 ch
Аудио: AAC, 192 kbps, 48.0 kHz, 2 ch

Список эпизодов:

01. On Your Marks!
02. Question
03. Andante
04. Full Swing
05. Rolling Stones
06. Restart
07. Snow Day
08. High Dynamic Range
09. Answer
10. Childhood`s End
11. Roundabout
12. Get Set, Go!

Тех. параметры:

General
Unique ID : 254637456850108256623058533388653527325 (0xBF9163EB6C59B35F8C51BA5FC68D811D)
Complete name : Just Because! [KANSAI]\[KANSAI] Just Because! - 01 [720p].mkv
Format : Matroska
Format version : Version 4 / Version 2
File size : 201 MiB
Duration : 23 min 57 s
Overall bit rate mode : Variable
Overall bit rate : 1 173 kb/s
Encoded date : UTC 2017-10-10 15:17:48
Writing application : mkvmerge v16.0.0 ('Protest') 64-bit
Writing library : libebml v1.3.5 + libmatroska v1.4.8

Video
ID : 1
Format : AVC
Format/Info : Advanced Video Codec
Format profile : High@L3.1
Format settings, CABAC : Yes
Format settings, RefFrames : 5 frames
Codec ID : V_MPEG4/ISO/AVC
Duration : 23 min 57 s
Bit rate mode : Variable
Bit rate : 855 kb/s
Maximum bit rate : 4 500 kb/s
Width : 1 280 pixels
Height : 720 pixels
Display aspect ratio : 16:9
Frame rate mode : Constant
Frame rate : 23.976 (24000/1001) FPS
Color space : YUV
Chroma subsampling : 4:2:0
Bit depth : 8 bits
Scan type : Progressive
Bits/(Pixel*Frame) : 0.039
Stream size : 146 MiB (73%)
Language : Japanese
Default : Yes
Forced : No
Color range : Limited
Color primaries : BT.709
Transfer characteristics : BT.709
Matrix coefficients : BT.709

Audio #1
ID : 2
Format : AAC
Format/Info : Advanced Audio Codec
Format profile : LC
Codec ID : A_AAC
Duration : 23 min 57 s
Bit rate : 192 kb/s
Channel(s) : 2 channels
Channel positions : Front: L R
Sampling rate : 48.0 kHz
Frame rate : 46.875 FPS (1024 SPF)
Compression mode : Lossy
Stream size : 32.5 MiB (16%)
Language : Russian
Default : Yes
Forced : No

Audio #2
ID : 3
Format : AAC
Format/Info : Advanced Audio Codec
Format profile : LC
Codec ID : A_AAC
Duration : 23 min 57 s
Bit rate : 125 kb/s
Channel(s) : 2 channels
Channel positions : Front: L R
Sampling rate : 48.0 kHz
Frame rate : 46.875 FPS (1024 SPF)
Compression mode : Lossy
Stream size : 21.5 MiB (11%)
Language : Japanese
Default : No
Forced : No


Детали торрента:
Название:Just Because! / А просто так! [2017, TV, 12 ep] WEB-DL 720p Raw+Rus
Дата добавления:22 Янв 2018 09:40:54
Размер:3,09 GB
Раздают:1
Качают:1
Форум:Аниме с озвучкой (HD)

All rights reserved © 2015-2018