TORRENTS43.COM

Скачать Mahou Tsukai no Yome / The Ancient Magus' Bride / Невеста Чародея [2017, TV, 24 ep] WEB-DL 720p Raw+Rus


Mahou Tsukai no Yome / The Ancient Magus' Bride / Невеста Чародея
Жанр: приключения, фэнтези, повседневность, сёнэн
Тип: TV-сериал
Продолжительность: 24 эпизода по 25 минут
Выпуск: c 08.10.2017 по 23.03.2018
Автор: Ямадзаки Корэ
Снято по манге: Mahou Tsukai no Yome
Режиссер: Наганума Норихиро
Производство: Wit Studio
Информационные ссылки: AniDB || World Art || MAL || ANN
Релиз подготовлен студией Kansai
  • Тип озвучки: Многоголосая, закадровая

Описание:
Сколько стоит жизнь человека? Имеет ли она вообще цену? А если имеет, то какую цену можно считать приемлемой? Но, даже получив ответы на эти вопросы, вряд ли кому-то захочется, чтобы его продали. Но если твоя жизнь тебе не принадлежит, то и спрашивать никто не станет. Так случилось и с пятнадцатилетней девочкой Чисэ Хатори. У неё не было ничего своего, лишь только особая сила, данная ей при рождении. За её необыкновенные способности и была назначена цена - 5 миллионов фунтов стерлингов. Вскоре нашёлся богатый покупатель, желающий приобрести Чисэ для себя.

Но этим покупателем оказался не человек, а странное существо с черепом вместо головы. Тем не менее, крупная сумма денег у него была в наличии, как и хорошие английские манеры примерного джентльмена. Элиас Айнсворт, так его звали, решил взять Чисэ к себе в ученицы, чтобы развивать её уникальные способности, а позже - и жениться на ней. Живя в единении с природой, Чисэ наконец начала обретать себя и понимать, что на свете существует множество радостей.
Качество: WEB-DLRip | Энкод: HorribleSubs
Язык озвучки: Японский и Русский
Формат: MKV
Видео: x264, 1280x720, ~1 776 kbps, 23.976 fps
Аудио: AAC, 128 kbps, 44.1 kHz, 2 ch
Аудио: AAC, 192 kbps, 48.0 kHz, 2 ch

Список эпизодов:

01. April Showers Bring May Flowers.
02. One Today Is Worth Two Tomorrows.
03. The Balance Distinguishes Not Between Gold and Lead.
04. Everything Must Have a Beginning.
05. Love Conquers All.
06. The Faerie Queene.
07. Talk of the Devil, and He Is Sure to Appear.
08. Let Sleeping Dogs Lie.
09. None So Deaf as Those Who Will Not Hear.
10. We Live and Learn.
11. Lovers Ever Run Before the Clock.
12. Better to Ask the Way Than Go Astray.
13. East, West, Home`s Best.
14. Looks Breed Love.
15. There Is No Place Like Home.
16. God`s Mill Grinds Slow but Sure.
17. Look Before You Leap.
18. Forgive and Forget.
19. Any Port in a Storm.
20. You Can`t Make an Omelet Without Breaking a Few Eggs.
21. Necessity Has No Law.
22. As You Sow, So Shall You Reap.
23. Nothing Seek, Nothing Find.
24. Live and Let Live.

Тех. параметры:

General
Unique ID : 172905848027904041726194239818833787979 (0x8214747CB15A609E863404DE680AFC4B)
Complete name : Mahoutsukai no Yome [KANSAI]\[KANSAI] Mahoutsukai no Yome - 01 [720p].mkv
Format : Matroska
Format version : Version 4 / Version 2
File size : 362 MiB
Duration : 24 min 10 s
Overall bit rate : 2 096 kb/s
Encoded date : UTC 2017-10-12 12:43:24
Writing application : mkvmerge v16.0.0 ('Protest') 64-bit
Writing library : libebml v1.3.5 + libmatroska v1.4.8

Video
ID : 1
Format : AVC
Format/Info : Advanced Video Codec
Format profile : High@L4
Format settings : CABAC / 6 Ref Frames
Format settings, CABAC : Yes
Format settings, RefFrames : 6 frames
Codec ID : V_MPEG4/ISO/AVC
Duration : 24 min 9 s
Bit rate : 1 776 kb/s
Width : 1 280 pixels
Height : 720 pixels
Display aspect ratio : 16:9
Frame rate mode : Variable
Frame rate : 23.976 (23976/1000) FPS
Color space : YUV
Chroma subsampling : 4:2:0
Bit depth : 8 bits
Scan type : Progressive
Bits/(Pixel*Frame) : 0.080
Stream size : 307 MiB (85%)
Writing library : x264 core 120 r2120 0c7dab9
Encoding settings : cabac=1 / ref=6 / deblock=1:1:1 / analyse=0x3:0x113 / me=umh / subme=8 / psy=1 / psy_rd=0.40:0.00 / mixed_ref=1 / me_range=16 / chroma_me=1 / trellis=1 / 8x8dct=1 / cqm=0 / deadzone=21,11 / fast_pskip=1 / chroma_qp_offset=-2 / threads=4 / sliced_threads=0 / nr=0 / decimate=1 / interlaced=0 / bluray_compat=0 / constrained_intra=0 / bframes=3 / b_pyramid=2 / b_adapt=2 / b_bias=0 / direct=3 / weightb=1 / open_gop=0 / weightp=2 / keyint=250 / keyint_min=23 / scenecut=40 / intra_refresh=0 / rc_lookahead=50 / rc=2pass / mbtree=1 / bitrate=1776 / ratetol=1.0 / qcomp=0.60 / qpmin=0 / qpmax=69 / qpstep=4 / cplxblur=20.0 / qblur=0.5 / vbv_maxrate=3552 / vbv_bufsize=8880 / nal_hrd=none / ip_ratio=1.40 / aq=1:0.60
Language : Japanese
Default : Yes
Forced : No

Audio #1
ID : 2
Format : AAC
Format/Info : Advanced Audio Codec
Format profile : LC
Codec ID : A_AAC-2
Duration : 24 min 10 s
Bit rate : 192 kb/s
Channel(s) : 2 channels
Channel positions : Front: L R
Sampling rate : 48.0 kHz
Frame rate : 46.875 FPS (1024 SPF)
Compression mode : Lossy
Stream size : 32.7 MiB (9%)
Language : Russian
Default : Yes
Forced : No

Audio #2
ID : 3
Format : AAC
Format/Info : Advanced Audio Codec
Format profile : LC
Codec ID : A_AAC-2
Duration : 24 min 10 s
Bit rate : 128 kb/s
Channel(s) : 2 channels
Channel positions : Front: L R
Sampling rate : 44.1 kHz
Frame rate : 43.066 FPS (1024 SPF)
Compression mode : Lossy
Stream size : 22.1 MiB (6%)
Language : Japanese
Default : No
Forced : No


Смотреть Online

http://moonwalk.cc/serial/74493c807b7f184049c8650347ef6b8b/iframe
Детали торрента:
Название:Mahou Tsukai no Yome / The Ancient Magus' Bride / Невеста Чародея [2017, TV, 24 ep] WEB-DL 720p Raw+Rus
Дата добавления:23 Апр 2018 01:38:59
Размер:8,48 GB
Раздают:7
Качают:0
Форум:Аниме с озвучкой (HD)

All rights reserved © 2015-2018