TORRENTS43.COM

Скачать Люцифер / Lucifer (2017) WEB-DLRip [H.264/720p-LQ] (сезон 3, серии 1-23 из 24) LostFilm, Profix Media, NewStudio, OmskBird (обновляемая)


Люцифер / Lucifer (2017) WEB-DLRip [H.264/720p-LQ] (сезон 3, серии 1-23 из 24) LostFilm, Profix Media, NewStudio, OmskBird
Производство: США
Жанр: фэнтези, драма, криминал

Режиссер: Нэйтан Хоуп, Карен Гавиола, Грег Биман
Актеры: Рэйчел Харрис, Лорен Джерман, Кайла Юэлл, Кевин Алехандро, Лесли-Энн Брандт, Д.Б. Вудсайд, Том Эллис, Мэтт Корбой, Скарлет Эстевез и др.

Описание:
Заскучавший и несчастный повелитель преисподней, Люцифер Морнингстар оставил свой престол и отправился в современный Лос-Анджелес, где основал ночной клуб «Lux». Очаровательный, харизматичный и дьявольски привлекательный Люцифер наслаждается своим отдыхом — вином, женщинами и музыкой — пока красивая поп-звезда не оказывается убитой на пороге его клуба…


Возраст: 18+ (зрителям, достигшим 18 лет. запрещено для детей)

Релиз от: Grandfather61

Продолжительность: ~00:44:00 серия
Качество видео: WEB-DLRip
Перевод: Многоголосый закадровый, профессиональный - LostFilm, Profix Media, NewStudio, OmskBird
Субтитры: русские, английские

Видео: AVC/H.264, 1280x720 (16:9), ~5526 kbps
Аудио: AC3, 6 ch, 640 Kbps - русский, многоголосый закадровый
Аудио: AC3, 2 ch, 192 Kbps - русский, многоголосый закадровый
Аудио: AC3, 6 ch, 640 Kbps - русский, многоголосый закадровый
Аудио: AC3, 6 ch, 640 Kbps - русский, многоголосый закадровый
Аудио: AC3, 6 ch, 640 Kbps - английский

Mediainfo:


General
Unique ID : 189258629700097202848202314376017293484 (0x8E61E2DF23410A67A2C8211E29F730AC)
Complete name : G:\Films\Lucifer.S03.720p.WEB-DL.4xRus.Eng\Lucifer.S03E01.720p.WEB-DL.4xRus.Eng.mkv
Format : Matroska
Format version : Version 4 / Version 2
File size : 2.52 GiB
Duration : 43mn 59s
Overall bit rate : 8 185 Kbps
Movie name : Lucifer 3x01 (2017) - Release for Grandfather61
Encoded date : UTC 2017-10-14 11:39:55
Writing application : mkvmerge v15.0.0 ('Duel with the Devil') 64-bit
Writing library : libebml v1.3.5 + libmatroska v1.4.5

Video
ID : 1
Format : AVC
Format/Info : Advanced Video Codec
Format profile : High@L4.1
Format settings, CABAC : Yes
Format settings, ReFrames : 9 frames
Codec ID : V_MPEG4/ISO/AVC
Duration : 43mn 59s
Bit rate : 5 526 Kbps
Width : 1 280 pixels
Height : 720 pixels
Display aspect ratio : 16:9
Frame rate mode : Constant
Frame rate : 23.976 (24000/1001) fps
Color space : YUV
Chroma subsampling : 4:2:0
Bit depth : 8 bits
Scan type : Progressive
Bits/(Pixel*Frame) : 0.250
Stream size : 1.70 GiB (68%)
Title : Lucifer 3x01 (2017) - Release for Grandfather61
Writing library : x264 core 148 r2638 7599210
Encoding settings : cabac=1 / ref=9 / deblock=1:-3:-3 / analyse=0x3:0x133 / me=umh / subme=10 / psy=1 / psy_rd=1.00:0.00 / mixed_ref=1 / me_range=48 / chroma_me=1 / trellis=2 / 8x8dct=1 / cqm=0 / deadzone=21,11 / fast_pskip=0 / chroma_qp_offset=-2 / threads=12 / lookahead_threads=2 / sliced_threads=0 / nr=0 / decimate=0 / interlaced=0 / bluray_compat=0 / constrained_intra=0 / bframes=9 / b_pyramid=0 / b_adapt=2 / b_bias=0 / direct=3 / weightb=1 / open_gop=0 / weightp=2 / keyint=240 / keyint_min=23 / scenecut=40 / intra_refresh=0 / rc=crf / mbtree=0 / crf=17.0 / qcomp=0.60 / qpmin=10 / qpmax=51 / qpstep=4 / ip_ratio=1.40 / pb_ratio=1.30 / aq=3:0.70
Language : Russian
Default : Yes
Forced : No

Audio #1
ID : 2
Format : AC-3
Format/Info : Audio Coding 3
Mode extension : CM (complete main)
Format settings, Endianness : Big
Codec ID : A_AC3
Duration : 43mn 59s
Bit rate mode : Constant
Bit rate : 640 Kbps
Channel(s) : 6 channels
Channel positions : Front: L C R, Side: L R, LFE
Sampling rate : 48.0 KHz
Frame rate : 31.250 fps (1536 spf)
Compression mode : Lossy
Stream size : 201 MiB (8%)
Title : LostFilm 5.1
Language : Russian
Default : Yes
Forced : No

Audio #2
ID : 3
Format : AC-3
Format/Info : Audio Coding 3
Mode extension : CM (complete main)
Format settings, Endianness : Big
Codec ID : A_AC3
Duration : 43mn 59s
Bit rate mode : Constant
Bit rate : 192 Kbps
Channel(s) : 2 channels
Channel positions : Front: L R
Sampling rate : 48.0 KHz
Frame rate : 31.250 fps (1536 spf)
Compression mode : Lossy
Stream size : 60.4 MiB (2%)
Title : Profix Media 2.0
Language : Russian
Default : No
Forced : No

Audio #3
ID : 4
Format : AC-3
Format/Info : Audio Coding 3
Mode extension : CM (complete main)
Format settings, Endianness : Big
Codec ID : A_AC3
Duration : 43mn 59s
Bit rate mode : Constant
Bit rate : 384 Kbps
Channel(s) : 6 channels
Channel positions : Front: L C R, Side: L R, LFE
Sampling rate : 48.0 KHz
Frame rate : 31.250 fps (1536 spf)
Compression mode : Lossy
Stream size : 121 MiB (5%)
Title : NewStudio 5.1
Language : Russian
Default : No
Forced : No

Audio #4
ID : 5
Format : AC-3
Format/Info : Audio Coding 3
Mode extension : CM (complete main)
Format settings, Endianness : Big
Codec ID : A_AC3
Duration : 43mn 59s
Bit rate mode : Constant
Bit rate : 640 Kbps
Channel(s) : 6 channels
Channel positions : Front: L C R, Side: L R, LFE
Sampling rate : 48.0 KHz
Frame rate : 31.250 fps (1536 spf)
Compression mode : Lossy
Stream size : 201 MiB (8%)
Title : OmskBird 5.1
Language : Russian
Default : No
Forced : No

Audio #5
ID : 6
Format : AC-3
Format/Info : Audio Coding 3
Mode extension : CM (complete main)
Format settings, Endianness : Big
Codec ID : A_AC3
Duration : 43mn 59s
Bit rate mode : Constant
Bit rate : 640 Kbps
Channel(s) : 6 channels
Channel positions : Front: L C R, Side: L R, LFE
Sampling rate : 48.0 KHz
Frame rate : 31.250 fps (1536 spf)
Compression mode : Lossy
Stream size : 201 MiB (8%)
Title : eng
Language : English
Default : No
Forced : No

Text #1
ID : 7
Format : UTF-8
Codec ID : S_TEXT/UTF8
Codec ID/Info : UTF-8 Plain Text
Title : OmskBird
Language : Russian
Default : No
Forced : No

Text #2
ID : 8
Format : UTF-8
Codec ID : S_TEXT/UTF8
Codec ID/Info : UTF-8 Plain Text
Title : eng
Language : English
Default : No
Forced : No

Подготовка релиза:

Релиз: Grandfather61
Работа со звуком: Grandfather61
Дорожка #1 получена наложением выделенных голосов от «LostFilm» на центр оригинального AC3
Синхронизация субтитров: Grandfather61

Внимание! Раздача ведётся путём добавления новых серий

Внимание! Раздача ведётся путём добавления новых серий; при каждом добавлении создаётся новый торрент.
Чтобы начать докачку новой серии, пользователям необходимо сделать следующее:
1. Остановить скачивание;
2. Удалить старый торрент у себя из клиента (старые серии удалять не надо);
3. Скачать новый торрент и запустить его у себя в клиенте вместо старого, при этом указать клиенту путь в старую папку куда и должно происходить скачивание новых серий. Ваш клиент при этом должен произвести хеширование (проверку) старой папки и будет докачивать только те серии, которых у вас ещё нет. Старые серии при этом не удаляются, а продолжают раздаваться! Eсли вы уже удалили старые серии, то предотвратить повторную закачку старых серий можно, отжав галочку в соответствующих местах при запуске нового торрента.
Скриншоты:


Все одноименные релизы в Клубе

Смотреть Online

http://moonwalk.cc/video/27e39cbe29d31eaf/iframe
Детали торрента:
Название:Люцифер / Lucifer (2017) WEB-DLRip [H.264/720p-LQ] (сезон 3, серии 1-23 из 24) LostFilm, Profix Media, NewStudio, OmskBird (обновляемая)
Дата добавления:14 Май 2018 08:34:34
Размер:55,2 GB
Раздают:7
Качают:6
Форум:Зарубежные сериалы

All rights reserved © 2015-2018