TORRENTS43.COM

Скачать Телохранители и убийцы / Shi yue wei cheng (2009) BDRip [H.265/1080p-LQ]


Телохранители и убийцы / Shi yue wei cheng (2009) BDRip
Производство: Китай, Гонконг / China Film Group Corporation, Cinema Popular, Shanghai Media & Entertainment Group
Жанр: Боевик, Драма, История

Режиссер: Тедди Чан
Актеры: Донни Ен, Леон Лай, Ван Сюэци, Тони Люн Ка Фай, Николас Тсе, Ху Цзюнь, Ли Юйчунь, Эрик Цан, Саймон Ям, Фань Бинбин

Описание:
В 1905 году Сунь Ятсен, собирается посетить Гонконг, чтобы обсудить планы революции и свержения династии Цин с товарищами из организации Тунмэнхой. Вдовствующая императрица Цыси, находящаяся у власти, посылает группу убийц во главе с Ян Сяого помешать Сунь Вэню. С другой стороны, Сунь Вэня защищают телохранители — рикши, уличные торговцы, бродяги, которых организовывает бизнесмен Ли Юйтан. Его сын Ли Чунгуан берет на себя роль двойника Сунь Вэня, чтобы отвлечь убийц от настоящего и дать ему возможность беспрепятственно провести встречу и покинуть Гонконг.


Возраст: 16+ (зрителям, достигшим 16 лет)
Рейтинг MPAA: этот продукт не был классифицирован

Релиз от: PirateMKV

Продолжительность: 02:18:15
Качество видео: BDRip
Перевод: Дублированный
Субтитры: итальянские (форсированные неотключаемые на китайский текст)

Видео: HEVC/H.265, 1912x816, ~4858 Kbps
Аудио: AC3, 6 ch, 448 Kbps

Mediainfo:


Общее
Уникальный идентификатор : 251392946204342572551095262197576211300 (0xBD208531BE326C389E5770DFF2C99B64)
Полное имя : E:\Video\Телохранители и убийцы (Bodyguards and Assassins).mkv
Формат : Matroska
Версия формата : Version 4 / Version 2
Размер файла : 5,12 Гбайт
Продолжительность : 2 ч. 18 м.
Общий поток : 5307 Кбит/сек
Название фильма : Телохранители и убийцы / Bodyguards and Assassins
Дата кодирования : UTC 2017-10-10 13:26:02
Программа кодирования : mkvmerge v12.0.0 ('Trust / Lust') 64bit
Библиотека кодирования : libebml v1.3.4 + libmatroska v1.4.5
Авторское право : Encoded by PirateMKV
Released by : Buba5473 for torrents43.com />
Видео
Идентификатор : 1
Формат : HEVC
Формат/Информация : High Efficiency Video Coding
Профиль формата : Main@L4@High
Идентификатор кодека : V_MPEGH/ISO/HEVC
Продолжительность : 2 ч. 18 м.
Битрейт : 4858 Кбит/сек
Ширина : 1912 пикселей
Высота : 816 пикселей
Соотношение сторон : 2,35:1
Режим частоты кадров : Постоянный
Частота кадров : 24,000 кадра/сек
Частота кадров в оригинале : 23,976 (24000/1001) кадра/сек
Цветовое пространство : YUV
Субдискретизация насыщенности : 4:2:0
Битовая глубина : 8 бит
Бит/(Пиксели*Кадры) : 0.130
Размер потока : 4,69 Гбайт (92%)
Заголовок : Bodyguards and Assassins (2009) - PirateMKV
Библиотека кодирования : x265 2.5+6-d11482e5fedb:[Windows][GCC 7.1.0][64 bit] 8bit
Настройки программы : cpuid=1173503 / frame-threads=3 / numa-pools=8 / wpp / no-pmode / no-pme / no-psnr / no-ssim / log-level=2 / input-csp=1 / input-res=1912x816 / interlace=0 / total-frames=0 / level-idc=40 / high-tier=1 / uhd-bd=0 / ref=5 / no-allow-non-conformance / no-repeat-headers / annexb / no-aud / no-hrd / info / hash=0 / no-temporal-layers / open-gop / min-keyint=23 / keyint=250 / bframes=8 / b-adapt=2 / b-pyramid / bframe-bias=0 / rc-lookahead=40 / lookahead-slices=0 / scenecut=40 / no-intra-refresh / ctu=64 / min-cu-size=8 / no-rect / no-amp / max-tu-size=32 / tu-inter-depth=3 / tu-intra-depth=3 / limit-tu=4 / rdoq-level=0 / dynamic-rd=0.00 / no-ssim-rd / signhide / no-tskip / nr-intra=0 / nr-inter=0 / no-constrained-intra / strong-intra-smoothing / max-merge=3 / limit-refs=3 / limit-modes / me=2 / subme=4 / merange=57 / temporal-mvp / weightp / weightb / no-analyze-src-pics / deblock=-1:-1 / sao / no-sao-non-deblock / rd=4 / no-early-skip / rskip / fast-intra / no-tskip-fast / no-cu-lossless / b-intra / rdpenalty=0 / psy-rd=1.00 / psy-rdoq=0.00 / no-rd-refine / analysis-reuse-mode=0 / no-lossless / cbqpoffs=0 / crqpoffs=0 / rc=crf / crf=22.6 / qcomp=0.60 / qpstep=4 / stats-write=0 / stats-read=0 / vbv-maxrate=30000 / vbv-bufsize=30000 / vbv-init=0.9 / crf-max=0.0 / crf-min=0.0 / ipratio=1.40 / pbratio=1.30 / aq-mode=3 / aq-strength=2.00 / no-cutree / zone-count=0 / no-strict-cbr / qg-size=32 / no-rc-grain / qpmax=69 / qpmin=0 / no-const-vbv / sar=0 / overscan=0 / videoformat=5 / range=0 / colorprim=2 / transfer=2 / colormatrix=1 / chromaloc=0 / display-window=0 / max-cll=0,0 / min-luma=0 / max-luma=255 / log2-max-poc-lsb=8 / vui-timing-info / vui-hrd-info / slices=1 / opt-qp-pps / opt-ref-list-length-pps / no-multi-pass-opt-rps / scenecut-bias=0.05 / no-opt-cu-delta-qp / no-aq-motion / no-hdr / no-hdr-opt / no-dhdr10-opt / analysis-reuse-level=5 / scale-factor=0 / refine-intra=0 / refine-inter=0 / refine-mv=0 / no-limit-sao / ctu-info=0
Язык : English
Default : Да
Forced : Нет
Цветовой диапазон : Limited
Коэффициенты матрицы : BT.709

Аудио
Идентификатор : 2
Формат : AC-3
Формат/Информация : Audio Coding 3
Параметр Endianness формата : Big
Идентификатор кодека : A_AC3
Продолжительность : 2 ч. 18 м.
Вид битрейта : Постоянный
Битрейт : 448 Кбит/сек
Каналы : 6 каналов
Расположение каналов : Front: L C R, Side: L R, LFE
Частота : 48,0 КГц
Частота кадров : 31,250 кадров/сек (1536 spf)
Битовая глубина : 16 бит
Метод сжатия : С потерями
Задержка видео : 329 мс.
Размер потока : 443 Мбайт (8%)
Заголовок : Перевод: Профессиональный (дублированный)
Язык : Russian
ServiceKind/String : Complete Main
Default : Да
Forced : Нет

Меню
00:00:00.000 : en:00:00:00.000
00:04:18.884 : en:00:04:18.884
00:11:28.646 : en:00:11:28.646
00:16:14.140 : en:00:16:14.140
00:23:29.783 : en:00:23:29.783
00:28:00.971 : en:00:28:00.971
00:31:27.511 : en:00:31:27.511
00:37:50.560 : en:00:37:50.560
00:42:29.547 : en:00:42:29.547
00:48:28.697 : en:00:48:28.697
00:52:15.841 : en:00:52:15.841
00:55:46.134 : en:00:55:46.134
00:58:56.116 : en:00:58:56.116
01:04:13.183 : en:01:04:13.183
01:11:07.388 : en:01:11:07.388
01:17:56.797 : en:01:17:56.797
01:21:45.317 : en:01:21:45.317
01:28:10.535 : en:01:28:10.535
01:32:31.004 : en:01:32:31.004
01:37:01.566 : en:01:37:01.566
01:39:29.297 : en:01:39:29.297
01:45:23.567 : en:01:45:23.567
01:54:49.216 : en:01:54:49.216
01:58:43.033 : en:01:58:43.033
02:03:00.748 : en:02:03:00.748
02:10:57.475 : en:02:10:57.475
02:12:27.314 : en:02:12:27.314

XMP
Xmp.video.FileName : E:\Video\Телохранители и убийцы (Bodyguards and Assassins).mkv
Xmp.video.FileSize : -9.53674e-007
Xmp.video.MimeType : video/matroska
Xmp.video.EBMLVersion : 1
Xmp.video.EBMLReadVersion : 1
Xmp.video.DocType : matroska
Xmp.video.DocTypeVersion : 4
Xmp.video.DocTypeReadVersion : 2
Xmp.video.TimecodeScale : 0.001
Xmp.video.MuxingApp : libebml v1.3.4 + libmatroska v1.4.5
Xmp.video.WritingApp : mkvmerge v12.0.0 ('Trust / Lust') 64bit
Xmp.video.Duration : 8294541
Xmp.video.DateUTC : 529334762
Xmp.video.Title : Телохранители и убийцы / Bodyguards and Assassins
Xmp.video.TotalStream : 6
Xmp.video.TrackLacing : No
Xmp.video.Codec : V_MPEGH/ISO/HEVC
Xmp.video.FrameRate : 24
Xmp.video.TrackName : Перевод: Профессиональный (дублированный)
Xmp.video.Width : 1912
Xmp.video.Height : 816
Xmp.audio.Compressor : A_AC3
Xmp.audio.DefaultDuration : 32000
Xmp.audio.TrackLang : rus
Xmp.audio.SampleRate : 48000
Xmp.video.AspectRatio : 2.35:1

Внимание! HEVC/x265:

H.265/HEVC (High Efficiency Video Coding) - это новый стандарт кодирования видео.
*Рипы в фомате HEVC, в настоящее время не поддерживается большинством аппаратных проигрывателей.
*Для корректного воспроизведения может потребоваться обновление ПО.
*Стандарт H.265/HEVC является логическим продолжением стандарта H.264/AVC (Advanced Video Coding), и характеризуется более эффективными алгоритмами сжатия, а также поддержкой высокого разрешения вплоть до 8K UHD (8192x4320). Первая версия стандарта H.265 была опубликована в начале 2013 года.

Любителям решения из коробки - установить последнюю версию на выбор:
Media Player Classic - Black Edition (MPC-BE)
VLC media player
Daum Pot Player
GOM Media Player

Любителям WMP и других плееров, использующих по умолчанию для воспроизведения системные кодеки+сплитеры - установить K-Lite Codec Pack версии 10.1.0 и выше.
Любимые плееры, не использующии по умолчанию для воспроизведения системные кодеки+сплитеры, нужно перенастроить на использование оных.
Скриншоты:


Все одноименные релизы в Клубе

Смотреть Online

http://moonwalk.cc/video/9c81dd70562e3bf6/iframe
Детали торрента:
Название:Телохранители и убийцы / Shi yue wei cheng (2009) BDRip [H.265/1080p-LQ]
Дата добавления:15 Окт 2017 06:24:38
Размер:5,12 GB
Раздают:2
Качают:0
Форум:Азиатское кино (HD*Rip/LQ, DVDRip, SATRip, VHSRip)

All rights reserved © 2015-2018