TORRENTS43.COM

Скачать Сверхъестественное / Supernatural (2017-2018) WEB-DLRip (сезон 13, серии 1-18 из 23) NewStudio & NovaFilm (обновляемая) [AD]


Сверхъестественное / Supernatural (2017-2018) WEB-DLRip (сезон 13, серии 1-18 из 23) NewStudio & NovaFilm [AD] (обновляемая)
Производство: США
Жанр: фэнтези, ужасы, драма

Режиссер: Роберт Сингер, Филип Сгриккиа, Джон Шоуолтер
Актеры: Джаред Падалеки, Дженсен Эклс, Марк Пеллегрино, Миша Коллинз, Александр Кэлверт, Саманта Смит, Ким Родс, Брианна Бакмастер, Кэтрин Ньютон, Кэтрин Рэмдин и др.

Описание:
Сериал рассказывает о приключениях братьев Сэма и Дина Винчестеров, которые путешествуют по Соединённым Штатам на чёрном автомобиле Chevrolet Impala 1967 года, расследуют паранормальные явления, многие из которых основаны на американских городских легендах и фольклоре, и сражаются с порождениями зла, такими как демоны и призраки.


Возраст: 16+ (зрителям, достигшим 16 лет)

Релиз от: NewStudio & NovaFilm

Продолжительность: ~00:42:00 серия
Качество видео: WEB-DLRip
Перевод: Многоголосый закадровый, профессиональный - NewStudio & NovaFilm
Реклама: присутствуют аудио и видео вставки рекламы

Видео: Xvid, 720x400 (16:9), ~1549 Kbps
Аудио: MP3, 2 ch, 128 Kbps - русский, многоголосый закадровый
Аудио: MP3, 2 ch, 128 Kbps - английский

Mediainfo:


General
Complete name : D:\Supernatural\Supernatural 13 Season NovaFilm\supernatural.s13e01.webdl.rus.eng.newstudio.tv.novafilm.tv.avi
Format : AVI
Format/Info : Audio Video Interleave
File size : 550 MiB
Duration : 42 min 15 s
Overall bit rate : 1 819 kb/s
Writing application : VirtualDubMod 1.5.10.2 (build 2540/release)
Writing library : VirtualDubMod build 2540/release

Video
ID : 0
Format : MPEG-4 Visual
Format profile : Advanced Simple@L5
Format settings, BVOP : 2
Format settings, QPel : Yes
Format settings, GMC : No warppoints
Format settings, Matrix : Default (MPEG)
Muxing mode : Packed bitstream
Codec ID : XVID
Codec ID/Hint : XviD
Duration : 42 min 15 s
Bit rate : 1 549 kb/s
Width : 720 pixels
Height : 400 pixels
Display aspect ratio : 16:9
Frame rate : 23.976 (24000/1001) FPS
Color space : YUV
Chroma subsampling : 4:2:0
Bit depth : 8 bits
Scan type : Progressive
Compression mode : Lossy
Bits/(Pixel*Frame) : 0.224
Stream size : 468 MiB (85%)
Writing library : XviD 73

Audio #1
ID : 1
Format : MPEG Audio
Format version : Version 1
Format profile : Layer 3
Mode : Joint stereo
Codec ID : 55
Codec ID/Hint : MP3
Duration : 42 min 15 s
Bit rate mode : Constant
Bit rate : 128 kb/s
Channel(s) : 2 channels
Sampling rate : 48.0 kHz
Compression mode : Lossy
Stream size : 38.7 MiB (7%)
Alignment : Aligned on interleaves
Interleave, duration : 42 ms (1.00 video frame)
Interleave, preload duratio : 504 ms
Writing library : LAME3.99r
Encoding settings : -m j -V 4 -q 2 -lowpass 17 -b 128

Audio #2
ID : 2
Format : MPEG Audio
Format version : Version 1
Format profile : Layer 3
Mode : Joint stereo
Codec ID : 55
Codec ID/Hint : MP3
Duration : 42 min 15 s
Bit rate mode : Constant
Bit rate : 128 kb/s
Channel(s) : 2 channels
Sampling rate : 48.0 kHz
Compression mode : Lossy
Stream size : 38.7 MiB (7%)
Alignment : Aligned on interleaves

Внимание! Раздача ведётся путём добавления новых серий

Внимание! Раздача ведётся путём добавления новых серий; при каждом добавлении создаётся новый торрент.
Чтобы начать докачку новой серии, пользователям необходимо сделать следующее:
1. Остановить скачивание;
2. Удалить старый торрент у себя из клиента (старые серии удалять не надо);
3. Скачать новый торрент и запустить его у себя в клиенте вместо старого, при этом указать клиенту путь в старую папку куда и должно происходить скачивание новых серий. Ваш клиент при этом должен произвести хеширование (проверку) старой папки и будет докачивать только те серии, которых у вас ещё нет. Старые серии при этом не удаляются, а продолжают раздаваться! Eсли вы уже удалили старые серии, то предотвратить повторную закачку старых серий можно, отжав галочку в соответствующих местах при запуске нового торрента.
Скриншоты:


Все одноименные релизы в Клубе

Смотреть Online

http://moonwalk.cc/video/2a49a22bf3961645/iframe
Детали торрента:
Название:Сверхъестественное / Supernatural (2017-2018) WEB-DLRip (сезон 13, серии 1-18 из 23) NewStudio & NovaFilm (обновляемая) [AD]
Дата добавления:17 Апр 2018 16:09:28
Размер:9,67 GB
Раздают:9
Качают:3
Форум:Сверхъестественное / Supernatural

All rights reserved © 2015-2018