TORRENTS43.COM

Скачать Сверхъестественное / Supernatural (2017) WEB-DLRip / HDTVRip [H.264/720p-LQ] (сезон 13, серии 1-3 из 23) DreamRecords (обновляемая) [AD]


Сверхъестественное / Supernatural (2017) WEB-DLRip [H.264/720p-LQ]
Производство: США / Kripke Enterprises, Warner Bros. Television, Wonderland Sound and Vision
Жанр: ужасы, фэнтези, драма

Режиссер: Роберт Сингер, Филип Сгриккиа, Джон Шоуолтер
Актеры: Джаред Падалеки, Дженсен Эклс, Джим Бивер, Миша Коллинз, Марк Шеппард, Марк Пеллегрино, Женевьев Падалеки, Кэти Кэссиди, Джеймс Патрик Стюарт, Саманта Феррис, Алона Тал и др.

Описание:
Сериал рассказывает о приключениях братьев Сэма и Дина Винчестеров, которые путешествуют по Соединённым Штатам на чёрном автомобиле Chevrolet Impala 1967 года, расследуют паранормальные явления, многие из которых основаны на американских городских легендах и фольклоре, и сражаются с порождениями зла, такими как демоны и призраки.


Возраст: 16+ (зрителям, достигшим 16 лет)

Продолжительность: ~00:42:00 серия
Качество видео: WEB-DLRip
Перевод: Многоголосый закадровый, профессиональный - DreamRecords
Субтитры: Отсутствуют
Реклама: Присутствуют видео и голосовые вставки рекламы

Видео: AVC/H.264, 1280x720 (16:9), 23.976 fps, ~3000 kbps
Аудио: AC3, 6 ch, 48 kHz, 384 kbps - русский, многоголосый закадровый

Mediainfo:


General
Complete name : Supernatural.S13E01.WEB-DL.720p-[DreamRecords].mkv
Format : Matroska
Format version : Version 2
File size : 1 003 MiB
Duration : 41mn 46s
Overall bit rate mode : Variable
Overall bit rate : 3 357 Kbps
Encoded date : UTC 2017-10-13 19:51:52
Writing application : mkvmerge v5.8.0 ('No Sleep / Pillow') built on Sep 2 2012 15:37:04
Writing library : libebml v1.2.3 + libmatroska v1.3.0

Video
ID : 1
Format : AVC
Format/Info : Advanced Video Codec
Format profile : High@L3.1
Format settings, CABAC : Yes
Format settings, ReFrames : 5 frames
Codec ID : V_MPEG4/ISO/AVC
Duration : 41mn 46s
Bit rate mode : Variable
Bit rate : 2 906 Kbps
Maximum bit rate : 4 500 Kbps
Width : 1 280 pixels
Height : 720 pixels
Display aspect ratio : 16:9
Frame rate mode : Constant
Frame rate : 23.976 fps
Color space : YUV
Chroma subsampling : 4:2:0
Bit depth : 8 bits
Scan type : Progressive
Bits/(Pixel*Frame) : 0.132
Stream size : 868 MiB (87%)
Default : Yes
Forced : No
Color primaries : BT.709
Transfer characteristics : BT.709
Matrix coefficients : BT.709

Audio
ID : 2
Format : AC-3
Format/Info : Audio Coding 3
Mode extension : CM (complete main)
Format settings, Endianness : Big
Codec ID : A_AC3
Duration : 41mn 46s
Bit rate mode : Constant
Bit rate : 384 Kbps
Channel(s) : 6 channels
Channel positions : Front: L C R, Side: L R, LFE
Sampling rate : 48.0 KHz
Bit depth : 16 bits
Compression mode : Lossy
Stream size : 115 MiB (11%)
Title : DreamRecords
Language : Russian
Default : Yes
Forced : No

Список серий:

Эпизод 1: Lost and Found
Эпизод 2: The Rising Son
Эпизод 3: Patience

Внимание! Раздача ведётся путём добавления новых серий

Внимание! Раздача ведётся путём добавления новых серий; при каждом добавлении создаётся новый торрент.
Чтобы начать докачку новой серии, пользователям необходимо сделать следующее:
1. Остановить скачивание;
2. Удалить старый торрент у себя из клиента (старые серии удалять не надо);
3. Скачать новый торрент и запустить его у себя в клиенте вместо старого, при этом указать клиенту путь в старую папку куда и должно происходить скачивание новых серий. Ваш клиент при этом должен произвести хеширование (проверку) старой папки и будет докачивать только те серии, которых у вас ещё нет. Старые серии при этом не удаляются, а продолжают раздаваться! Eсли вы уже удалили старые серии, то предотвратить повторную закачку старых серий можно, отжав галочку в соответствующих местах при запуске нового торрента.
Скриншоты:


Все одноименные релизы в Клубе

Смотреть Online

http://moonwalk.cc/video/2a49a22bf3961645/iframe
Детали торрента:
Название:Сверхъестественное / Supernatural (2017) WEB-DLRip / HDTVRip [H.264/720p-LQ] (сезон 13, серии 1-3 из 23) DreamRecords (обновляемая) [AD]
Дата добавления:31 Окт 2017 20:07:46
Размер:2,86 GB
Раздают:
Качают:0
Форум:Сверхъестественное / Supernatural

All rights reserved © 2015-2018