TORRENTS43.COM

Скачать Воскресший Эртугрул / Dirilis: Ertugrul (2017-2018) WEB-DLRip (сезон 4, серия 1-30 (92-121) из 30) turok1990 [VO]


Воскресший Эртугрул / Dirilis: Ertugrul (2017-2018) WEB-DLRip (сезон 4 серия 1-30 (92-121) из 30)
Производство: Турция / Tekden Film, TRT 1
Жанр: боевик, драма, приключения, военный, история

Режиссер: Метин Гюнай
Актеры: Элгин Алтан Дюзйятан, Хюлья Дарджан, Джемал Хюнал, Бурак Хаккы, Эсра Билгич, Гюльсим Али, Аслыхан Гюнер, Дженгиз Джошкун, Нуреттин Сёнмез, Мурат Гарипагаоглу, Эртугрул Постоглу и др.

Описание:
Сериал "Воскресший Эртугрул" унесет зрителей в глубину истории, когда начала формироваться Великая Османская империя и расскажет о жизни Эртугрула, отца Османа I. Эртугрул был лидером клана тюрок-огузов из рода Кайы и прибыл в Анатолию из Мерва (Туркменистана) с 400 всадниками, чтобы помочь сельджукам Рума против византийцев. Эртугрул по праву считается отцом Османской империи. Этот воин благодаря своей храбрости, терпению и упорству начал великие завоевания, которые впоследствии сформировали Османскую империю. За время своего правления ему удалось завоевать всю западную часть Малой Азии, а его поколения правили империей на протяжении шести веков. Сериал расскажет о великом переселении, о завоевании новых земель, об исторических походах и, конечно же, о любви.



Продолжительность: ~02:20:00 серия
Качество видео: WEB-DLRip
Перевод: Одноголосый закадровый, любительский - turok1990

Видео: Xvid, 720x400 (16:9), ~1330 kbps
Аудио: MP3, 2 ch, 192 kbps

Mediainfo:


Format : AVI
Format/Info : Audio Video Interleave
File size : 1.39 GiB
Duration : 2h 9mn
Overall bit rate : 1 532 Kbps
Video
ID : 0
Format : MPEG-4 Visual
Format profile : Advanced Simple@L5
Format settings, BVOP : 2
Format settings, QPel : No
Format settings, GMC : No warppoints
Format settings, Matrix : Default (H.263)
Codec ID : XVID
Codec ID/Hint : XviD
Duration : 2h 9mn
Bit rate : 1 330 Kbps
Width : 720 pixels
Height : 400 pixels
Display aspect ratio : 16:9
Frame rate : 25.000 fps
Color space : YUV
Chroma subsampling : 4:2:0
Bit depth : 8 bits
Scan type : Progressive
Compression mode : Lossy
Bits/(Pixel*Frame) : 0.185
Stream size : 1.21 GiB (87%)
Writing library : XviD 73
Audio
ID : 1
Format : MPEG Audio
Format version : Version 1
Format profile : Layer 3
Mode : Dual mono
Codec ID : 55
Codec ID/Hint : MP3
Duration : 2h 9mn
Bit rate mode : Constant
Bit rate : 192 Kbps
Channel(s) : 2 channels
Sampling rate : 44.1 KHz
Compression mode : Lossy
Stream size : 178 MiB (13%)
Alignment : Split accross interleaves
Interleave, duration : 40 ms (1.00 video frame)
Interleave, preload duration : 500 ms

Дополнительная информация:

Любительский одноголосый перевод - turok1990, по заказу ТуркСинемаТВ. Озвучивание сериала при поддержке группы ВКонтакте "Diriliş: Ertuğrul" (Администратор - Алиса Селиванова).
Скриншоты:


Все одноименные релизы в Клубе

Смотреть Online

http://moonwalk.cc/serial/a01971a42c041c6315f7fc3caa36ba96/iframe
Детали торрента:
Название:Воскресший Эртугрул / Dirilis: Ertugrul (2017-2018) WEB-DLRip (сезон 4, серия 1-30 (92-121) из 30) turok1990 [VO]
Дата добавления:08 Июн 2018 09:30:13
Размер:45,5 GB
Раздают:7
Качают:12
Форум:Зарубежные сериалы

All rights reserved © 2015-2018