TORRENTS43.COM

Скачать Техасская резня бензопилой: Кожаное лицо / Leatherface (2017) WEB-DLRip [H.264]


Техасская резня бензопилой: Кожаное лицо / Leatherface (2017) WEB-DLRip [H.264]
Производство: США, Campbell Grobman Films, LF2 Productions, Lionsgate, Millennium Films
Жанр: Ужасы, Триллер

Режиссер: Александр Бустильо, Жюльен Мори
Продюсер: Криста Кэмпбелл, Лати Гробман, Карл Маццоконе
Актеры: Стивен Дорфф, Ванесса Грасс, Сэм Страйк, Лили Тейлор, Финн Джонс, Николь Эндрюс, Джеймс Блур, Сэм Коулман, Симона Левин, Кристофер Адамсон, Джулиан Костов, Джессика Мэдсен, Борис Кабакчиев, Йен Фишер, Велизар Пеев, Деян Ангелов, Лорина Камбурова, Нэйтан Купер

Описание:
При побеге из лечебницы для душевнобольных, четверо подростков похищают молодую медсестру. В погоню за ними пускается отряд полицейских во главе с техасским рейнджером Хэлом Хартменом, мстительным и беспощадным. Один из беглецов встает на полный трагедий и ужасов путь, который превратит его в маньяка — легенду по имени Кожаное лицо.


Возраст: 18+ (зрителям, достигшим 18 лет. запрещено для детей)
Рейтинг MPAA: R (лицам до 17 лет обязательно присутствие взрослого)
Дата мировой премьеры: 25 августа 2017
Дата российской премьеры: 21 сентября 2017, «Каскад»

Продолжительность: 01:27:41
Качество видео: WEB-DLRip
Перевод: Дублированный (iTunes)
Субтитры: Английские

Видео: AVC/H.264, 1024x424, ~1846 Kbps
Аудио 1: AC3, 6 ch, 384 Kbps - Русский
Аудио 2: AC3, 6 ch, 384 Kbps - Английский

Mediainfo:


Leatherface.2017.WEB-DLRip(AVC).mkv
Формат : Matroska
Версия формата : Version 2
Размер файла : 1,60 Гбайт
Продолжительность : 1 ч. 27 м.
Общий поток : 2615 Кбит/сек
Название фильма : Leatherface.2017 - TorpedoUK
Дата кодирования : UTC 2017-10-30 06:28:48
Программа кодирования : mkvmerge v7.8.0 ('River Man') 32bit built on Apr 3 2015 12:11:22
Библиотека кодирования : libebml v1.3.1 + libmatroska v1.4.2

Видео
Идентификатор : 1
Формат : AVC
Формат/Информация : Advanced Video Codec
Профиль формата : High@L4.1
Настройки формата : CABAC / 10 Ref Frames
Параметр CABAC формата : Да
Параметр RefFrames формата : 10 кадров
Идентификатор кодека : V_MPEG4/ISO/AVC
Продолжительность : 1 ч. 27 м.
Битрейт : 1846 Кбит/сек
Ширина : 1024 пикселя
Высота : 424 пикселя
Соотношение сторон : 2,40:1
Режим частоты кадров : Постоянный
Частота кадров : 23,976 (24000/1001) кадра/сек
Цветовое пространство : YUV
Субдискретизация насыщенности : 4:2:0
Битовая глубина : 8 бит
Тип развёртки : Прогрессивная
Бит/(Пиксели*Кадры) : 0.177
Размер потока : 1,10 Гбайт (69%)
Библиотека кодирования : x264 core 146 r2538 121396c
Настройки программы : cabac=1 / ref=10 / deblock=1:-3:-3 / analyse=0x3:0x133 / me=umh / subme=11 / psy=1 / psy_rd=1.00:0.05 / mixed_ref=1 / me_range=48 / chroma_me=1 / trellis=2 / 8x8dct=1 / cqm=0 / deadzone=21,11 / fast_pskip=1 / chroma_qp_offset=-3 / threads=6 / lookahead_threads=1 / sliced_threads=0 / nr=0 / decimate=1 / interlaced=0 / bluray_compat=0 / constrained_intra=0 / bframes=10 / b_pyramid=2 / b_adapt=2 / b_bias=0 / direct=3 / weightb=1 / open_gop=0 / weightp=2 / keyint=240 / keyint_min=23 / scenecut=40 / intra_refresh=0 / rc_lookahead=40 / rc=2pass / mbtree=0 / bitrate=1846 / ratetol=1.0 / qcomp=0.60 / qpmin=0 / qpmax=69 / qpstep=4 / cplxblur=20.0 / qblur=0.5 / vbv_maxrate=50000 / vbv_bufsize=62500 / nal_hrd=none / filler=0 / ip_ratio=1.40 / pb_ratio=1.30 / aq=1:1.00
Язык : English
Default : Да
Forced : Нет

Аудио #1
Идентификатор : 2
Формат : AC-3
Формат/Информация : Audio Coding 3
Параметр Endianness формата : Big
Идентификатор кодека : A_AC3
Продолжительность : 1 ч. 27 м.
Вид битрейта : Постоянный
Битрейт : 384 Кбит/сек
Каналы : 6 каналов
Расположение каналов : Front: L C R, Side: L R, LFE
Частота : 48,0 КГц
Частота кадров : 31,250 кадров/сек (1536 SPF)
Битовая глубина : 16 бит
Метод сжатия : С потерями
Размер потока : 241 Мбайт (15%)
Заголовок : iTunes
Язык : Russian
ServiceKind/String : Complete Main
Default : Да
Forced : Нет

Аудио #2
Идентификатор : 3
Формат : AC-3
Формат/Информация : Audio Coding 3
Параметр Endianness формата : Big
Идентификатор кодека : A_AC3
Продолжительность : 1 ч. 27 м.
Вид битрейта : Постоянный
Битрейт : 384 Кбит/сек
Каналы : 6 каналов
Расположение каналов : Front: L C R, Side: L R, LFE
Частота : 48,0 КГц
Частота кадров : 31,250 кадров/сек (1536 SPF)
Битовая глубина : 16 бит
Метод сжатия : С потерями
Размер потока : 241 Мбайт (15%)
Заголовок : Original
Язык : English
ServiceKind/String : Complete Main
Default : Нет
Forced : Нет

Текст
Идентификатор : 4
Формат : UTF-8
Идентификатор кодека : S_TEXT/UTF8
Идентификатор кодека/Информация : UTF-8 Plain Text
Язык : English
Default : Нет
Forced : Нет

Меню
00:00:00.000 : en:01
00:05:51.000 : en:02
00:10:51.000 : en:03
00:15:51.000 : en:04
00:22:28.000 : en:05
00:27:42.000 : en:06
00:34:11.000 : en:07
00:40:45.000 : en:08
00:45:45.000 : en:09
00:51:53.000 : en:10
00:57:28.000 : en:11
01:02:26.000 : en:12
01:07:40.000 : en:13
01:13:02.000 : en:14
01:18:59.000 : en:15
01:24:16.000 : en:16
Скриншоты:

Дополнительные скриншоты:



Все одноименные релизы в Клубе

Смотреть Online

http://moonwalk.cc/video/80b9c61fff10c501/iframe
Детали торрента:
Название:Техасская резня бензопилой: Кожаное лицо / Leatherface (2017) WEB-DLRip [H.264]
Дата добавления:30 Окт 2017 17:24:20
Размер:1,6 GB
Раздают:8
Качают:0
Форум:Зарубежные Новинки (HD*Rip/LQ, DVDRip)

All rights reserved © 2015-2018