TORRENTS43.COM

Скачать Бруклин 9-9 / Brooklyn Nine-Nine (2017) WEB-DL [H.264/720p-LQ] (сезон 5, серии 1-20 из ??) NewStudio (обновляемая) [AD]


Бруклин 9-9 / Brooklyn Nine-Nine (2017) WEB-DL [H.264/720p-LQ] (сезон 5, серии 1-19 из ??) NewStudio (обновляемая) [AD]
Производство: США / Fremulon, Dr. Goor Productions, 3 Arts Entertainment, Universal Television
Жанр: комедия, криминал

Режиссер: Майкл МакДональд, Дин Холлэнд, Виктор Нелли мл.
Актеры: Энди Сэмберг, Андре Брогер, Терри Крюс, Мелисса Фумеро, Джо Ло Трульо, Стефани Беатриз, Челси Перетти, Дирк Блокер, Джоэль МакКиннон Миллер, Кира Седжвик
и др.

Описание:
История о том, что происходит, когда у детектива, не воспринимающего ничего серьезно, появляется новый руководитель, который хочет, чтобы он рос и с уважением относился к своей должности.


Возраст: 16+ (зрителям, достигшим 16 лет)

Продолжительность: ~00:21:00 серия
Качество видео: WEB-DL
Перевод: Многоголосый закадровый, профессиональный - NewStudio
Реклама: присутствуют аудиовставки рекламы

Видео: AVC/H.264, 1280x720 (16:9), ~4018 kbps
Аудио #1: AC3, 6 ch, 384 kbps - русский, многоголосый закадровый
Аудио #2: AC3, 6 ch, 384 kbps - английский

Mediainfo:


Общее
Уникальный идентификатор : 185114365640977025340502922557090477946 (0x8B43BAE0C88483EBAC13BF7C6C58B77A)
Полное имя : E:\Сериалы\Brooklyn Nine-Nine\Brooklyn Nine-Nine - Season 5 (NewStudio)\Brooklyn.Nine-Nine.s05e01.WEBDL.720p.NewStudio.TV.mkv
Формат : Matroska
Версия формата : Version 4 / Version 2
Размер файла : 751 Мбайт
Продолжительность : 21 м. 29 с.
Общий поток : 4883 Кбит/сек
Дата кодирования : UTC 2010-02-22 21:41:31
Программа кодирования : mkvmerge v5.9.0 ('On The Loose') built on Dec 9 2012 15:37:01
Библиотека кодирования : libebml v1.3.0 + libmatroska v1.4.0

Видео
Идентификатор : 1
Формат : AVC
Формат/Информация : Advanced Video Codec
Профиль формата : High@L3.1
Настройки формата : 2 Ref Frames
Параметр CABAC формата : Нет
Параметр RefFrames формата : 2 кадра
Режим смешивания : Header stripping
Идентификатор кодека : V_MPEG4/ISO/AVC
Продолжительность : 21 м. 29 с.
Битрейт : 4018 Кбит/сек
Ширина : 1280 пикселей
Высота : 720 пикселей
Соотношение сторон : 16:9
Режим частоты кадров : Постоянный
Частота кадров : 23,976 кадра/сек
Цветовое пространство : YUV
Субдискретизация насыщенности : 4:2:0
Битовая глубина : 8 бит
Тип развёртки : Прогрессивная
Бит/(Пиксели*Кадры) : 0.182
Размер потока : 618 Мбайт (82%)
Язык : English
Default : Да
Forced : Нет
Цветовой диапазон : Limited
Основные цвета : BT.709
Характеристики трансфера : BT.709
Коэффициенты матрицы : BT.709
Statistics Tags Issue : mkvmerge v8.2.0 ('World of Adventure') 32bit 2017-09-28 20:52:45 / mkvmerge v5.9.0 ('On The Loose') built on Dec 9 2012 15:37:01 2010-02-22 21:41:31
FromStats_BitRate : 4114117
FromStats_Duration : 00:21:29.582000000
FromStats_FrameCount : 30920
FromStats_StreamSize : 663186449

Аудио #1
Идентификатор : 2
Формат : AC-3
Формат/Информация : Audio Coding 3
Режим смешивания : Header stripping
Идентификатор кодека : A_AC3
Продолжительность : 21 м. 29 с.
Вид битрейта : Постоянный
Битрейт : 384 Кбит/сек
Каналы : 6 каналов
Расположение каналов : Front: L C R, Side: L R, LFE
Частота : 48,0 КГц
Частота кадров : 31,250 кадров/сек (1536 SPF)
Битовая глубина : 16 бит
Метод сжатия : С потерями
Размер потока : 59,0 Мбайт (8%)
Заголовок : NewStudio.TV
Язык : Russian
ServiceKind/String : Complete Main
Default : Да
Forced : Нет
Statistics Tags Issue : mkvmerge v8.2.0 ('World of Adventure') 32bit 2017-09-28 20:52:45 / mkvmerge v5.9.0 ('On The Loose') built on Dec 9 2012 15:37:01 2010-02-22 21:41:31
FromStats_BitRate : 384000
FromStats_Duration : 00:21:29.696000000
FromStats_FrameCount : 40303
FromStats_StreamSize : 61905408

Аудио #2
Идентификатор : 3
Формат : AC-3
Формат/Информация : Audio Coding 3
Режим смешивания : Header stripping
Идентификатор кодека : A_AC3
Продолжительность : 21 м. 29 с.
Вид битрейта : Постоянный
Битрейт : 384 Кбит/сек
Каналы : 6 каналов
Расположение каналов : Front: L C R, Side: L R, LFE
Частота : 48,0 КГц
Частота кадров : 31,250 кадров/сек (1536 SPF)
Битовая глубина : 16 бит
Метод сжатия : С потерями
Размер потока : 59,0 Мбайт (8%)
Язык : English
ServiceKind/String : Complete Main
Default : Нет
Forced : Нет
Statistics Tags Issue : mkvmerge v8.2.0 ('World of Adventure') 32bit 2017-09-28 20:52:45 / mkvmerge v5.9.0 ('On The Loose') built on Dec 9 2012 15:37:01 2010-02-22 21:41:31
FromStats_BitRate : 384000
FromStats_Duration : 00:21:29.664000000
FromStats_FrameCount : 40302
FromStats_StreamSize : 61903872

Список серий

01. The Big House Pt. 1/Большой дом, ч. 1
02. The Big House Pt. 2/Большой дом, ч. 2
03. Kicks/Пинки
04. HalloVeen/Хэллоуин 5
05. Bad Beat/Бэдбит
06. The Venue/Судебный округ
07. Two Turkeys/Две индейки
08. Return to Skyfire/Возвращение "Огненного неба"
09. 99/99
10. Game Night/Игровой вечер
11. The Favor/Услуга
12. Safe House/Безопасный дом
13. The Negotiation/Ведение переговоров
14. The Box/Коробка
15. The Puzzle Master/Мастер головоломки
16. NutriBoom/НутриБум
17. DFW/Аэропорт Далласа
18. Gray Star Mutual/Страховая компания „Грей Стар Мьютиал“
19. Bachelor/ette Party/Мальчишник/девичник
20. Show Me Going/Покажи мне

Подготовка релиза

Автор перевода: Александра Цернант, Юрий Башенкер

Внимание! Раздача ведётся путём добавления новых серий

Внимание! Раздача ведётся путём добавления новых серий; при каждом добавлении создаётся новый торрент.
Чтобы начать докачку новой серии, пользователям необходимо сделать следующее:
1. Остановить скачивание;
2. Удалить старый торрент у себя из клиента (старые серии удалять не надо);
3. Скачать новый торрент и запустить его у себя в клиенте вместо старого, при этом указать клиенту путь в старую папку куда и должно происходить скачивание новых серий. Ваш клиент при этом должен произвести хеширование (проверку) старой папки и будет докачивать только те серии, которых у вас ещё нет. Старые серии при этом не удаляются, а продолжают раздаваться! Eсли вы уже удалили старые серии, то предотвратить повторную закачку старых серий можно, отжав галочку в соответствующих местах при запуске нового торрента.
Скриншоты:


Все одноименные релизы в Клубе

Смотреть Online

http://moonwalk.cc/serial/1dd049eeec6fe6e2af21e21c36fdf96e/iframe
Детали торрента:
Название:Бруклин 9-9 / Brooklyn Nine-Nine (2017) WEB-DL [H.264/720p-LQ] (сезон 5, серии 1-20 из ??) NewStudio (обновляемая) [AD]
Дата добавления:23 Май 2018 17:11:24
Размер:14,4 GB
Раздают:9
Качают:7
Форум:Зарубежные сериалы

All rights reserved © 2015-2018