TORRENTS43.COM

Скачать Бесогон ТВ. Изображая жертву (17.11.2017) WEBRip [H.264]


Бесогон ТВ. Изображая жертву (17.11.2017) WEBRip
Телекомпания: Россия 24
Жанр: Телепередача, общественно-политическая программа

Ведущий: Никита Михалков

Описание:
Авторская Программа Никиты Михалкова Бесогон TV на канале Россия 24 выходит 1 или 2 раза в месяц.
Цель этого авторского канала, - поделится мыслями и опровергнуть домыслы появляющиеся в сети и не отражающие истинного мнения автора передачи, - Никиты Михалкова о том или ином событии.
Темы выпусков самые разные, но доминируют политика и общество.

Из выпуска Бесогон ТВ, Никита Михалков: «Вы посмотрите как инфантильно стало понятие "защита и оберегание", насколько оно беспомощно. Это что, где сила, где живое сострадание, где мужское достоинство? Мужское достоинство, сила и понятие мужчины постепенно вытравливается. Осознанно вытравливается. Что происходит? Истребляется понятие веры, семьи, родителей. Исчезает понятие матери и отца - родитель №1, родитель №2. В Англии нельзя больше говорить "Беременная женщина" - беременный человек. Почему, чтобы не обидеть трансгендера? Вы посмотрите с какой осторожностью, лелея внедряется понятие среднего пола. Оно уже есть, оно зафиксировано - средний пол - не мужчина, не женщина. Детей, которых Бог сделал мальчиком или девочкой, им внедряют в сознание с малых лет, что они могут себе, кем они станут, мальчиком или девочкой. Женщина в офицерской одежде, став мужчиной, командует батальоном, а мужчины, став женщинами, сидят сиделками и домохозяйками...»

В выпуске: Харви Вайнштейн и что стоит за сексуальными домогательствами, Гвинет Пелтроу, Эшли Джадд, Екатерина Цетуридзе, Дональд Трамп, Толерантность, Мультикультурализм, Инфантильная защита, Мужское достоинство, Австралийское познавательное шоу Everybody, Церемония открытия Готардского базисного тоннеля, Новый мировой порядок

Продолжительность: 00:41:51
Качество видео: WEBRip

Видео: AVC/H.264, 960x540 (16:9), ~1189 Kbps
Аудио: AAC, 2 ch, 94 Kbps

Mediainfo:


General
Unique ID : 173959972676592201253935709630553555404 (0x82DF78D8493B7E8B9A9CB2E5B78281CC)
Complete name : D:\Film\Бесогон ТВ Изображая жертву.mkv
Format : Matroska
Format version : Version 4 / Version 2
File size : 385 MiB
Duration : 41 min 51 s
Overall bit rate mode : Variable
Overall bit rate : 1 285 kb/s
Encoded date : UTC 2017-11-19 20:55:42
Writing application : mkvmerge v18.0.0 ('Apricity') 64-bit
Writing library : libebml v1.3.5 + libmatroska v1.4.8
Cover : Yes
Attachments : cover.png

Video
ID : 1
Format : AVC
Format/Info : Advanced Video Codec
Format profile : Main@L3.1
Format settings : CABAC / 2 Ref Frames
Format settings, CABAC : Yes
Format settings, RefFrames : 2 frames
Format settings, GOP : M=3, N=60
Codec ID : V_MPEG4/ISO/AVC
Duration : 41 min 51 s
Bit rate mode : Variable
Bit rate : 1 189 kb/s
Maximum bit rate : 2 000 kb/s
Width : 960 pixels
Height : 540 pixels
Display aspect ratio : 16:9
Frame rate mode : Constant
Frame rate : 25.000 FPS
Color space : YUV
Chroma subsampling : 4:2:0
Bit depth : 8 bits
Scan type : Progressive
Bits/(Pixel*Frame) : 0.092
Stream size : 356 MiB (92%)
Language : Russian
Default : Yes
Forced : No

Audio
ID : 2
Format : AAC
Format/Info : Advanced Audio Codec
Format profile : LC
Codec ID : A_AAC-2
Duration : 41 min 51 s
Bit rate : 93.5 kb/s
Channel(s) : 2 channels
Channel positions : Front: L R
Sampling rate : 48.0 kHz
Frame rate : 46.875 FPS (1024 SPF)
Compression mode : Lossy
Delay relative to video : -21 ms
Stream size : 28.0 MiB (7%)
Language : Russian
Default : Yes
Forced : No
Скриншоты:


Все одноименные релизы в Клубе
Детали торрента:
Название:Бесогон ТВ. Изображая жертву (17.11.2017) WEBRip [H.264]
Дата добавления:20 Ноя 2017 01:07:05
Размер:385 MB
Раздают:1
Качают:0
Форум:Публицистика, политика и экономика

All rights reserved © 2015-2018