TORRENTS43.COM

Скачать sayCeT (S A Y C E T) - Discography 5 Releases (2006-2015) [FLAC|Lossless|tracks+.cue, tracks] <IDM, Downtempo, Illbient, Ambient>


S A Y C E T

Француз Pierre Lefeuvre делает очень трогательные треки, смотря на мир глазами ребёнка для которого электронные устройства - органическая часть вселенной. Saycet - это по-настоящему музыка для души, мечтательная и воздушная. Это та музыка, которая очарует Вас и пленит, музыка местами наивная - местами необыкновенно «мудрая» - но вместе с тем, бесконечно замечательная.
Жанр: IDM, Downtempo, Illbient, Ambient • Страна: France • Год издания: 2006-2015 • Тип издания: CD, WEB
Аудиокодек: FLAC (*.flac) • Тип рипа: tracks+.cue, tracks • Продолжительность: 03:08:06 • Источник: What, boomkat
Треклист:

2006 One Day at Home (CD)

Год выпуска: 2006
Жанр: IDM/Ambient
Продолжительность: 00:49:51
Треклист:

01. Chromatic Bird (06:35)
02. Don't Cry Little Girl (04:42)
03. Trilogie (04:37)
04. Circonflex (05:57)
05. Maud Takes The Train (06:06)
06. 3ème Type (04:36)
07. Dinafly (05:34)
08. Metadine (04:37)
09. Dream Factory (07:07)

EAC


Exact Audio Copy V1.0 beta 1 from 15. November 2010

EAC extraction logfile from 18. February 2011, 15:12

Saycet / One Day at Home

Used drive : TSSTcorpCDDVDW TS-L633C Adapter: 2 ID: 0

Read mode : Secure
Utilize accurate stream : Yes
Defeat audio cache : Yes
Make use of C2 pointers : No

Read offset correction : 6
Overread into Lead-In and Lead-Out : No
Fill up missing offset samples with silence : Yes
Delete leading and trailing silent blocks : No
Null samples used in CRC calculations : Yes
Used interface : Native Win32 interface for Win NT & 2000
Gap handling : Appended to previous track

Used output format : User Defined Encoder
Selected bitrate : 128 kBit/s
Quality : High
Add ID3 tag : No
Command line compressor : C:\Program Files (x86)\Exact Audio Copy\Flac\flac.exe
Additional command line options : -V -8 -T "artist=%a" -T "title=%t" -T "album=%g" -T "date=%y" -T "tracknumber=%n" -T "genre=%m" %s

TOC of the extracted CD

Track | Start | Length | Start sector | End sector
---------------------------------------------------------
1 | 0:00.00 | 6:34.48 | 0 | 29597
2 | 6:34.48 | 4:42.32 | 29598 | 50779
3 | 11:17.05 | 4:37.18 | 50780 | 71572
4 | 15:54.23 | 5:57.09 | 71573 | 98356
5 | 21:51.32 | 6:06.32 | 98357 | 125838
6 | 27:57.64 | 4:36.03 | 125839 | 146541
7 | 32:33.67 | 5:33.61 | 146542 | 171577
8 | 38:07.53 | 4:37.26 | 171578 | 192378
9 | 42:45.04 | 7:06.68 | 192379 | 224396

Track 1

Filename G:\EACRIPS\Saycet - 2006 - One Day at Home\01. Chromatic Bird.wav

Pre-gap length 0:00:02.00

Peak level 95.2 %
Extraction speed 2.4 X
Track quality 100.0 %
Test CRC 8B486A25
Copy CRC 8B486A25
Track not present in AccurateRip database
Copy OK

Track 2

Filename G:\EACRIPS\Saycet - 2006 - One Day at Home\02. Don't Cry Little Girl.wav

Peak level 98.8 %
Extraction speed 2.6 X
Track quality 100.0 %
Test CRC C001FB5D
Copy CRC C001FB5D
Track not present in AccurateRip database
Copy OK

Track 3

Filename G:\EACRIPS\Saycet - 2006 - One Day at Home\03. Trilogie.wav

Peak level 81.0 %
Extraction speed 2.8 X
Track quality 100.0 %
Test CRC 42E75928
Copy CRC 42E75928
Track not present in AccurateRip database
Copy OK

Track 4

Filename G:\EACRIPS\Saycet - 2006 - One Day at Home\04. Cyrconplex.wav

Peak level 94.5 %
Extraction speed 3.1 X
Track quality 100.0 %
Test CRC 4836EF72
Copy CRC 4836EF72
Track not present in AccurateRip database
Copy OK

Track 5

Filename G:\EACRIPS\Saycet - 2006 - One Day at Home\05. Maud Takes the Train.wav

Pre-gap length 0:00:00.45

Peak level 74.1 %
Extraction speed 3.4 X
Track quality 100.0 %
Test CRC 3EAED7BB
Copy CRC 3EAED7BB
Track not present in AccurateRip database
Copy OK

Track 6

Filename G:\EACRIPS\Saycet - 2006 - One Day at Home\06. 3ème Type.wav

Peak level 98.8 %
Extraction speed 3.5 X
Track quality 100.0 %
Test CRC 85595DD8
Copy CRC 85595DD8
Track not present in AccurateRip database
Copy OK

Track 7

Filename G:\EACRIPS\Saycet - 2006 - One Day at Home\07. Dinaply.wav

Peak level 98.8 %
Extraction speed 3.8 X
Track quality 100.0 %
Test CRC 2FDAD3ED
Copy CRC 2FDAD3ED
Track not present in AccurateRip database
Copy OK

Track 8

Filename G:\EACRIPS\Saycet - 2006 - One Day at Home\08. Metadine.wav

Pre-gap length 0:00:00.53

Peak level 98.8 %
Extraction speed 3.9 X
Track quality 100.0 %
Test CRC 65E24104
Copy CRC 65E24104
Track not present in AccurateRip database
Copy OK

Track 9

Filename G:\EACRIPS\Saycet - 2006 - One Day at Home\09. Dream Factory.wav

Pre-gap length 0:00:00.17

Peak level 98.8 %
Extraction speed 4.2 X
Track quality 100.0 %
Test CRC 684BBEBC
Copy CRC 684BBEBC
Track not present in AccurateRip database
Copy OK

None of the tracks are present in the AccurateRip database

No errors occurred

End of status report

==== Log checksum 6B12B156D89728EBDF1FED18BA24CFAFFFBAE0A8D5503C43305718371B94155D ====

CUE


REM GENRE IDM, Ambient
REM DATE 2006
REM DISCID 9A0BAF09
REM COMMENT "ExactAudioCopy v1.0b1"
PERFORMER "Saycet"
TITLE "One Day at Home"
FILE "01. Chromatic Bird.wav" WAVE
TRACK 01 AUDIO
TITLE "Chromatic Bird"
PERFORMER "Saycet"
INDEX 01 00:00:00
FILE "02. Don't Cry Little Girl.wav" WAVE
TRACK 02 AUDIO
TITLE "Don't Cry Little Girl"
PERFORMER "Saycet"
INDEX 01 00:00:00
FILE "03. Trilogie.wav" WAVE
TRACK 03 AUDIO
TITLE "Trilogie"
PERFORMER "Saycet"
INDEX 01 00:00:00
FILE "04. Cyrconplex.wav" WAVE
TRACK 04 AUDIO
TITLE "Cyrconplex"
PERFORMER "Saycet"
INDEX 01 00:00:00
TRACK 05 AUDIO
TITLE "Maud Takes the Train"
PERFORMER "Saycet"
INDEX 00 05:56:50
FILE "05. Maud Takes the Train.wav" WAVE
INDEX 01 00:00:00
FILE "06. 3ème Type.wav" WAVE
TRACK 06 AUDIO
TITLE "3ème Type"
PERFORMER "Saycet"
INDEX 01 00:00:00
FILE "07. Dinaply.wav" WAVE
TRACK 07 AUDIO
TITLE "Dinaply"
PERFORMER "Saycet"
INDEX 01 00:00:00
TRACK 08 AUDIO
TITLE "Metadine"
PERFORMER "Saycet"
INDEX 00 05:33:21
FILE "08. Metadine.wav" WAVE
INDEX 01 00:00:00
TRACK 09 AUDIO
TITLE "Dream Factory"
PERFORMER "Saycet"
INDEX 00 04:37:13
FILE "09. Dream Factory.wav" WAVE
INDEX 01 00:00:00

2010 Through the Window (CD)

Год выпуска: 2010
Жанр: IDM/Downtempo/Ambient
Продолжительность: 00:47:17
Треклист:

01. 15 (03:10)
02. Easy (03:48)
03. Bruyère (03:44)
04. Opal (03:18)
05. Her Movie (04:01)
06. We Walk Fast (03:47)
07. And Mama Said: "It's Amazing" (04:31)
08. Sunday Morning (04:46)
09. Daddy Walks Under The Snow (04:40)
10. Fireflies (03:56)
11. Kien-Lang (04:05)
12. A Night With Trees (03:31)

EAC


Exact Audio Copy V0.99 prebeta 5 from 4. May 2009

EAC extraction logfile from 7. November 2010, 0:20

sayCeT / Through The Window

Used drive : HL-DT-STDVD-ROM GDR-M10N Adapter: 0 ID: 0

Read mode : Secure
Utilize accurate stream : Yes
Defeat audio cache : Yes
Make use of C2 pointers : No

Read offset correction : 102
Overread into Lead-In and Lead-Out : No
Fill up missing offset samples with silence : Yes
Delete leading and trailing silent blocks : No
Null samples used in CRC calculations : Yes
Used interface : Native Win32 interface for Win NT & 2000
Gap handling : Appended to previous track

Used output format : User Defined Encoder
Selected bitrate : 768 kBit/s
Quality : High
Add ID3 tag : No
Command line compressor : C:\Program Files\Exact Audio Copy\FLAC\FLAC.EXE
Additional command line options : -V -8 -T "ARTIST=%a" -T "TITLE=%t" -T "ALBUM=%g" -T "DATE=%y" -T "TRACKNUMBER=%n" -T "GENRE=%m" -T "COMMENT=%e" %s -o %d

TOC of the extracted CD

Track | Start | Length | Start sector | End sector
---------------------------------------------------------
1 | 0:00.00 | 3:10.00 | 0 | 14249
2 | 3:10.00 | 3:48.00 | 14250 | 31349
3 | 6:58.00 | 3:44.03 | 31350 | 48152
4 | 10:42.03 | 3:18.29 | 48153 | 63031
5 | 14:00.32 | 4:01.00 | 63032 | 81106
6 | 18:01.32 | 3:46.59 | 81107 | 98115
7 | 21:48.16 | 4:30.65 | 98116 | 118430
8 | 26:19.06 | 4:46.01 | 118431 | 139881
9 | 31:05.07 | 4:39.65 | 139882 | 160871
10 | 35:44.72 | 3:56.09 | 160872 | 178580
11 | 39:41.06 | 4:05.29 | 178581 | 196984
12 | 43:46.35 | 3:30.59 | 196985 | 212793
13 | 49:49.19 | 22:04.49 | 224194 | 323542

Track 1

Filename 01 - sayCeT - Through The Window - 15.wav

Pre-gap length 0:00:02.00

Peak level 97.7 %
Track quality 100.0 %
Test CRC 70919DA9
Copy CRC 70919DA9
Track not present in AccurateRip database
Copy OK

Track 2

Filename 02 - sayCeT - Through The Window - Easy.wav

Peak level 97.7 %
Track quality 100.0 %
Test CRC F8EC4C31
Copy CRC F8EC4C31
Track not present in AccurateRip database
Copy OK

Track 3

Filename 03 - sayCeT - Through The Window - Bruyиre.wav

Peak level 87.9 %
Track quality 100.0 %
Test CRC CBDA95C1
Copy CRC CBDA95C1
Track not present in AccurateRip database
Copy OK

Track 4

Filename 04 - sayCeT - Through The Window - Opal.wav

Peak level 97.7 %
Track quality 100.0 %
Test CRC 079D37DA
Copy CRC 079D37DA
Track not present in AccurateRip database
Copy OK

Track 5

Filename 05 - sayCeT - Through The Window - Her Movie.wav

Peak level 97.7 %
Track quality 100.0 %
Test CRC 86AC6853
Copy CRC 86AC6853
Track not present in AccurateRip database
Copy OK

Track 6

Filename 06 - sayCeT - Through The Window - We Walk Fast.wav

Peak level 97.7 %
Track quality 99.9 %
Test CRC 81871194
Copy CRC 81871194
Track not present in AccurateRip database
Copy OK

Track 7

Filename 07 - sayCeT - Through The Window - And Mama Said - 'It's Amazing'.wav

Peak level 97.7 %
Track quality 100.0 %
Test CRC 11DD0FF6
Copy CRC 11DD0FF6
Track not present in AccurateRip database
Copy OK

Track 8

Filename 08 - sayCeT - Through The Window - Sunday Morning.wav

Peak level 97.7 %
Track quality 100.0 %
Test CRC 6A00237F
Copy CRC 6A00237F
Track not present in AccurateRip database
Copy OK

Track 9

Filename 09 - sayCeT - Through The Window - Daddy Walks Under The Snow.wav

Peak level 97.7 %
Track quality 100.0 %
Test CRC 5A9DBDEA
Copy CRC 5A9DBDEA
Track not present in AccurateRip database
Copy OK

Track 10

Filename 10 - sayCeT - Through The Window - Fireflies.wav

Peak level 97.7 %
Track quality 99.9 %
Test CRC 70C3FD7F
Copy CRC 70C3FD7F
Track not present in AccurateRip database
Copy OK

Track 11

Filename 11 - sayCeT - Through The Window - Kien-Lang.wav

Peak level 97.7 %
Track quality 99.9 %
Test CRC A91DE09E
Copy CRC A91DE09E
Track not present in AccurateRip database
Copy OK

Track 12

Filename 12 - sayCeT - Through The Window - A Night With Trees.wav

Peak level 97.7 %
Track quality 100.0 %
Test CRC 8DBA581F
Copy CRC 8DBA581F
Track not present in AccurateRip database
Copy OK

None of the tracks are present in the AccurateRip database

No errors occurred

End of status report

CUE


REM GENRE IDM, Ambient
REM DATE 2010
REM DISCID AA10D90D
REM COMMENT "ExactAudioCopy v0.99pb5"
FILE "01. 15.wav" WAVE
TRACK 01 AUDIO
FLAGS DCP
INDEX 01 00:00:00
FILE "02. Easy.wav" WAVE
TRACK 02 AUDIO
FLAGS DCP
INDEX 01 00:00:00
FILE "03. Bruyère.wav" WAVE
TRACK 03 AUDIO
FLAGS DCP
INDEX 01 00:00:00
FILE "04. Opal.wav" WAVE
TRACK 04 AUDIO
FLAGS DCP
INDEX 01 00:00:00
FILE "05. Her Movie.wav" WAVE
TRACK 05 AUDIO
FLAGS DCP
INDEX 01 00:00:00
FILE "V.wav" WAVE
TRACK 06 AUDIO
FLAGS DCP
INDEX 01 00:00:00
FILE "07. And Mama Said- 'It's Amazing'.wav" WAVE
TRACK 07 AUDIO
FLAGS DCP
INDEX 01 00:00:00
FILE "08. Sunday Morning.wav" WAVE
TRACK 08 AUDIO
FLAGS DCP
INDEX 01 00:00:00
FILE "09. Daddy Walks Under The Snow.wav" WAVE
TRACK 09 AUDIO
FLAGS DCP
INDEX 01 00:00:00
FILE "10. Fireflies.wav" WAVE
TRACK 10 AUDIO
FLAGS DCP
INDEX 01 00:00:00
FILE "11. Kien-Lang.wav" WAVE
TRACK 11 AUDIO
FLAGS DCP
INDEX 01 00:00:00
FILE "12. A Night With Trees.wav" WAVE
TRACK 12 AUDIO
FLAGS DCP
INDEX 01 00:00:00
TRACK 13 MODEx/2xxx
INDEX 00 03:30:59

2011 Opal EP (WEB)

Год выпуска: 2011
Жанр: IDM/Downtempo/Ambient
Продолжительность: 00:27:20
Треклист:

01. Opal (03:18)
02. After Glory (Lost Track) (04:50)
03. Opalowsky (Error-Love Remix) (04:47)
04. Opal (Tresors Remix) (04:33)
05. Opal (Anoraak Remix) (05:32)
06. Opal (Second Date Remix) (04:20)

Лог проверки качества


-----------------------

DON'T MODIFY THIS FILE

-----------------------

PERFORMER: auCDtect Task Manager, ver. 1.6.0 RC1 build 1.6.0.1
Copyright (c) 2008-2010 y-soft. All rights reserved
http://y-soft.org

ANALYZER: auCDtect: CD records authenticity detector, version 0.8.2
Copyright (c) 2004 Oleg Berngardt. All rights reserved.
Copyright (c) 2004 Alexander Djourik. All rights reserved.

FILE: 01. Opal.flac
Size: 23931343 Hash: 482F16A0EF977AF765A1E5B50FA3E91F Accuracy: -m0
Conclusion: CDDA 99%
Signature: 1B2D5054A39A5079A02CA59FFA70D164B57B9A7F
FILE: 06. Opal (Second Date Remix).flac
Size: 28403987 Hash: BB7C245DD4F1EEBC54267A7454C9FC1C Accuracy: -m0
Conclusion: CDDA 100%
Signature: F73BFB957F672149E26A0A8424C7467EC8491A7F
FILE: 05. Opal (Anoraak Remix).flac
Size: 37209098 Hash: 98BCC07F5155A9D9C7D1ED619A8C3B34 Accuracy: -m0
Conclusion: CDDA 100%
Signature: E35CC795C7FFFF8D8DB8764A1F8EF2C34F3B95D4
FILE: 04. Opal (Trésors Remix).flac
Size: 31538225 Hash: 38145B4A1C0D83939BC5E5A8ABE4EE8D Accuracy: -m0
Conclusion: CDDA 100%
Signature: C7892CC2F87A4E260BAA1BDE256BF12F9DB40B81
FILE: 03. Opalowsky (Error-Love Remix).flac
Size: 32859770 Hash: 5288C88FC192BED08BBEDC9D99A869D1 Accuracy: -m0
Conclusion: MPEG 90%
Signature: 2D4024BC9DB0A7ABDE62F8CCC977964E0A95DC6C
FILE: 02. After Glory (Lost Track).flac
Size: 30001875 Hash: F0BCECD2280B0B50D8BA496F385BD78D Accuracy: -m0
Conclusion: CDDA 99%
Signature: 7E03CA8959E1B50C26D57F86CD5560539F4E613A

2014 Volcano EP (WEB)

Год выпуска: 2014
Жанр: IDM/Ambient
Продолжительность: 00:16:37
Треклист:

01. Volcano (04:36)
02. Cite radieuse (05:03)
03. True Love, Pt. 3 (06:58)

Лог проверки качества


-----------------------

DON'T MODIFY THIS FILE

-----------------------

PERFORMER: auCDtect Task Manager, ver. 1.6.0 RC1 build 1.6.0.1
Copyright (c) 2008-2010 y-soft. All rights reserved
http://y-soft.org

ANALYZER: auCDtect: CD records authenticity detector, version 0.8.2
Copyright (c) 2004 Oleg Berngardt. All rights reserved.
Copyright (c) 2004 Alexander Djourik. All rights reserved.

FILE: 03. True Love, Pt. 3.flac
Size: 41059406 Hash: 5A8321C77D78BFBEB8AC8B481E4B8421 Accuracy: -m0
Conclusion: CDDA 100%
Signature: CA748BE9719B1D8499A47530E1CC27233835434A
FILE: 02. Cité radieuse.flac
Size: 35365478 Hash: 71BBD65533013DB4954BF6FBF75548DF Accuracy: -m0
Conclusion: CDDA 100%
Signature: 56A85636B5EA814E69054A02DEF5B18800105745
FILE: 01. Volcano.flac
Size: 33343702 Hash: A2254B7B4C1766EC2285A1586F891002 Accuracy: -m0
Conclusion: CDDA 100%
Signature: 6720A4327BD4521095C148007EFBDB292DE0F31E

2015 Mirage (WEB)

Год выпуска: 2014
Жанр: Ambient/Downtempo/Illbient
Продолжительность: 00:47:01
Треклист:

01. Ayrton Senna (03:35)
02. Mirages (04:11)
03. Volcano (04:34)
04. Météores (04:56)
05. Half Awake (03:30)
06. Northern Lights (03:38)
07. Quiet Days (04:22)
08. Cité Radieuse (05:02)
09. Kananaskis (04:52)
10. Smiles From Thessaloniki (08:21)

Лог проверки качества


-----------------------

DON'T MODIFY THIS FILE

-----------------------

PERFORMER: auCDtect Task Manager, ver. 1.5.1RC6 build 1.5.1.7
Copyright (c) 2008-2010 y-soft. All rights reserved
http://y-soft.org

ANALYZER: auCDtect: CD records authenticity detector, version 0.8.2
Copyright (c) 2004 Oleg Berngardt. All rights reserved.
Copyright (c) 2004 Alexander Djourik. All rights reserved.

FILE: 01. Ayrton Senna.flac
Size: 19940048 Hash: 62885B76AC8DD18E8166239E64774F39 Accuracy: -m0
Conclusion: CDDA 99%
Signature: 4371B76344E478D13E7D1999C65B50CE70A6A4DA
FILE: 10. Smiles from Thessaloniki.flac
Size: 42542383 Hash: 58718D862C95103478C4514FDA88A733 Accuracy: -m0
Conclusion: CDDA 100%
Signature: 2B23A4CCF98857A872E96E7CD6537F561BEC050B
FILE: 09. Kananaskis (feat. Phoene Somsavath).flac
Size: 28901054 Hash: CBEAC8831332E2B266F5D73D9C241C80 Accuracy: -m0
Conclusion: CDDA 100%
Signature: 11AFCF1CA4AA0B3B3BC095ECBE0432833DA9909B
FILE: 08. Cité radieuse.flac
Size: 31571990 Hash: 1CFBECF38A7324C75152ADBC86684984 Accuracy: -m0
Conclusion: CDDA 100%
Signature: 2EB9A0A2954FB09FB55D76B5EC81CF5356DBA452
FILE: 07. Quiet Days (feat. Phoene Somsavath).flac
Size: 32744286 Hash: 61E13BF21F079EDE474431FA3ECCFCC1 Accuracy: -m0
Conclusion: CDDA 100%
Signature: 69E64834D1E79E476924E5A1EC79FAB26ADD3E7D
FILE: 06. Northern Lights.flac
Size: 19176043 Hash: 3DCEAB551E76DA61660BF475EEBA0A24 Accuracy: -m0
Conclusion: CDDA 100%
Signature: 86B4A7662B91F71481796D2108D68C4D55645847
FILE: 05. Half Awake.flac
Size: 25132173 Hash: AF25689F58E02F47DE2EB85E5142067B Accuracy: -m0
Conclusion: CDDA 100%
Signature: 2E0B373C210B7649855100E861E85180641522C6
FILE: 04. Météores.flac
Size: 32446222 Hash: 978CCB8999F4B72F36FA1D3F779451AD Accuracy: -m0
Conclusion: CDDA 100%
Signature: 62F98BEACB267EA8C094A7D467D1479BEDFD9FD4
FILE: 03. Volcano (feat. Phoene Somsavath).flac
Size: 29593207 Hash: D4A9728DDECDCA61F98EC92FBD5907D2 Accuracy: -m0
Conclusion: CDDA 100%
Signature: 6F5344F67B8C5AFACB75A47389AFA3C15FE294C4
FILE: 02. Mirages (feat. Phoene Somsavath).flac
Size: 28760838 Hash: A83E297DDA0A6E5053321BB1A634706B Accuracy: -m0
Conclusion: CDDA 100%
Signature: 12D7E8C0897B396ED1522B3019660BDF48E754DC

Discogs

Детали торрента:
Название:sayCeT (S A Y C E T) - Discography 5 Releases (2006-2015) [FLAC|Lossless|tracks+.cue, tracks] <IDM, Downtempo, Illbient, Ambient>
Дата добавления:22 Ноя 2017 23:01:06
Размер:1,09 GB
Раздают:2
Качают:0
Форум:IDM (Lossless)

All rights reserved © 2015-2018