TORRENTS43.COM

Скачать Великолепие в траве / Splendor in the Grass (1961) WEB-DLRip [H.264]


Великолепие в траве / Splendor in the Grass (1961) WEB-DLRip [H.264]
Производство: США / NBI Productions, Newton Productions, Warner Bros. Pictures
Жанр: Драма, Мелодрама

Режиссер: Элиа Казан
Продюсер: Уильям Индж, Чарльз Х. Магвайр, Элиа Казан
Актеры: Натали Вуд, Пэт Хингл, Одри Кристи, Барбара Лоден, Зора Ламперт, Уоррен Битти, Фред Стюарт, Джоэнна Рус, Джон МакГоверн, Жан Норрис

Описание:
Канзас конца 20-х годов. Замкнутый мирок маленького городка, где царят суровые пуританские нравы. Любовь двух старшеклассников под запретом. Она не может ослушаться мать, твердящую о целомудрии до брака, он не решается пойти против воли отца, желающего во что бы то ни стало отправить сына в Йельский университет. Не найдя выхода чувствам, молодой человек заводит интрижку с одноклассницей своей возлюбленной. Узнав об этом, девушка пытается покончить с собой и попадает в психиатрическую клинику.



Релиз от: Охрана (Torrents43.com)
Продолжительность: 02:03:55
Качество видео: WEB-DLRip
Перевод: Многоголосый, двуголосый закадровый, авторский
Субтитры: Английские

Видео: AVC/H.264, 1024x576, ~2575 Kbps
Аудио 1: Русский, AC3, 2 ch, 192 Kbps, 48.0 kHz (MVO, НТВ+)
Аудио 2: Русский, AC3, 2 ch, 192 Kbps, 48.0 kHz (DVO, Ульпаней Эльром)
Аудио 3: Русский, AC3, 2 ch, 192 Kbps, 48.0 kHz (AVO, А. Медведев)
Аудио 4: Английский, AC3, 2 ch, 192 Kbps, 48.0 kHz (Оригинал)

Mediainfo:


General
Unique ID : 248348754212685073720763650123001418736 (0xBAD63AF0F08E26CB86A08DC15C0ED3F0)
Complete name : F:\Downloads\Великолепие в траве. 1961. torrents43.comv
Format : Matroska
Format version : Version 4 / Version 2
File size : 2.90 GiB
Duration : 2h 3mn
Overall bit rate : 3 346 Kbps
Encoded date : UTC 2017-12-01 13:29:27
Writing application : mkvmerge v7.0.0 ('Where We Going') 32bit built on Jun 9 2014 15:08:34
Writing library : libebml v1.3.0 + libmatroska v1.4.1
_STATISTICS_WRITING_APP : mkvmerge v7.0.0 ('Where We Going') 32bit built on Jun 9 2014 15:08:34
_STATISTICS_WRITING_DATE_UTC : 2017-12-01 13:29:27
_STATISTICS_TAGS : BPS DURATION NUMBER_OF_FRAMES NUMBER_OF_BYTES
DURATION : 02:03:55.808000000
NUMBER_OF_FRAMES : 232369
NUMBER_OF_BYTES : 178459392

Video
ID : 1
Format : AVC
Format/Info : Advanced Video Codec
Format profile : High@L4.1
Format settings, CABAC : Yes
Format settings, ReFrames : 9 frames
Codec ID : V_MPEG4/ISO/AVC
Duration : 2h 3mn
Bit rate : 2 575 Kbps
Width : 1 024 pixels
Height : 576 pixels
Display aspect ratio : 16:9
Frame rate mode : Constant
Frame rate : 23.976 fps
Color space : YUV
Chroma subsampling : 4:2:0
Bit depth : 8 bits
Scan type : Progressive
Bits/(Pixel*Frame) : 0.182
Stream size : 2.17 GiB (75%)
Title : Splendor in the Grass
Writing library : x264 core 125 r2208 d9d2288
Encoding settings : cabac=1 / ref=9 / deblock=1:-1:-1 / analyse=0x3:0x133 / me=umh / subme=10 / psy=1 / psy_rd=1.00:0.10 / mixed_ref=1 / me_range=32 / chroma_me=1 / trellis=2 / 8x8dct=1 / cqm=0 / deadzone=21,11 / fast_pskip=0 / chroma_qp_offset=-3 / threads=6 / lookahead_threads=1 / sliced_threads=0 / nr=0 / decimate=0 / interlaced=0 / bluray_compat=0 / constrained_intra=0 / bframes=7 / b_pyramid=2 / b_adapt=2 / b_bias=0 / direct=3 / weightb=1 / open_gop=0 / weightp=2 / keyint=250 / keyint_min=25 / scenecut=40 / intra_refresh=0 / rc_lookahead=60 / rc=2pass / mbtree=1 / bitrate=2575 / ratetol=1.0 / qcomp=0.60 / qpmin=0 / qpmax=69 / qpstep=4 / cplxblur=20.0 / qblur=0.5 / ip_ratio=1.40 / aq=1:1.00
Language : English
Default : Yes
Forced : No

Audio #1
ID : 2
Format : AC-3
Format/Info : Audio Coding 3
Mode extension : CM (complete main)
Format settings, Endianness : Big
Codec ID : A_AC3
Duration : 2h 3mn
Bit rate mode : Constant
Bit rate : 192 Kbps
Channel(s) : 2 channels
Channel positions : Front: L R
Sampling rate : 48.0 KHz
Bit depth : 16 bits
Compression mode : Lossy
Stream size : 170 MiB (6%)
Title : Многоголосый закадровый, НТВ+
Language : Russian
Default : Yes
Forced : No

Audio #2
ID : 3
Format : AC-3
Format/Info : Audio Coding 3
Mode extension : CM (complete main)
Format settings, Endianness : Big
Codec ID : A_AC3
Duration : 2h 3mn
Bit rate mode : Constant
Bit rate : 192 Kbps
Channel(s) : 2 channels
Channel positions : Front: L R
Sampling rate : 48.0 KHz
Bit depth : 16 bits
Compression mode : Lossy
Stream size : 170 MiB (6%)
Title : Двуголосый закадровый, Ульпаней Эльром
Language : Russian
Default : No
Forced : No

Audio #3
ID : 4
Format : AC-3
Format/Info : Audio Coding 3
Mode extension : CM (complete main)
Format settings, Endianness : Big
Codec ID : A_AC3
Duration : 2h 3mn
Bit rate mode : Constant
Bit rate : 192 Kbps
Channel(s) : 2 channels
Channel positions : Front: L R
Sampling rate : 48.0 KHz
Bit depth : 16 bits
Compression mode : Lossy
Stream size : 170 MiB (6%)
Title : Авторский, А. Медведев
Language : Russian
Default : No
Forced : No

Audio #4
ID : 5
Format : AC-3
Format/Info : Audio Coding 3
Mode extension : CM (complete main)
Format settings, Endianness : Big
Codec ID : A_AC3
Duration : 2h 3mn
Bit rate mode : Constant
Bit rate : 192 Kbps
Channel(s) : 2 channels
Channel positions : Front: L R
Sampling rate : 48.0 KHz
Bit depth : 16 bits
Compression mode : Lossy
Stream size : 170 MiB (6%)
Title : Оригинал
Language : English
Default : No
Forced : No

Text #1
ID : 6
Format : UTF-8
Codec ID : S_TEXT/UTF8
Codec ID/Info : UTF-8 Plain Text
Title : SRT
Language : English
Default : No
Forced : No

Text #2
ID : 7
Format : UTF-8
Codec ID : S_TEXT/UTF8
Codec ID/Info : UTF-8 Plain Text
Title : SDH
Language : English
Default : No
Forced : No
Скриншоты:

Дополнительные скриншоты:



Все одноименные релизы в Клубе

Смотреть Online

http://moonwalk.cc/video/613530c88b83f3c5/iframe
Детали торрента:
Название:Великолепие в траве / Splendor in the Grass (1961) WEB-DLRip [H.264]
Дата добавления:02 Дек 2017 04:40:33
Размер:2,9 GB
Раздают:1
Качают:0
Форум:Зарубежная Классика (HD*Rip/LQ, DVDRip, SATRip, VHSRip)

All rights reserved © 2015-2018