TORRENTS43.COM

Скачать Ночлежка / Crash Pad (2017) WEB-DL [1080p] ATV


Ночлежка / Crash Pad (2017) WEB-DL [1080p] ATV
-

Год выпуска: 2017
Производство: США
Жанр: Комедия
Продолжительность: 01:33:17

Перевод: Многоголосый закадровый (iTunes)
Субтитры: Русские форсированные, Русские, Английские
Режиссер: Кевин Тент
Актеры: Нина Добрев, Донал Глисон, Кристина Эпплгейт, Томас Хейден Чёрч, Алийа О’Брайен, Анна Ван Хуфт, Бриттни Ирвин, Нилс Дж Хонестад, Аня Савчич, Владимир Рузич

Мировая премьера: 26 сентября 2017



Описание: Стенслэнд, простак и безнадёжный романтик, верит, что обрёл истинную любовь в лице красавицы Морган. Однако для неё молодой любовник — лишь способ отомстить беспутному мужу, на что тот отвечает равноценной монетой, начав разгульную холостяцкую жизнь… в доме Стенслэнда.
Качество: WEB-DL 1080p
Контейнер: M4V
Видео: H.264, 1920x804, 2.40:1, 4 569 Kbps, 23.976 fps

Аудио 1: Русский/Многоголосый закадровый (iTunes), AAC / 2.0 / 160 Kbps / 48.0 KHz
Аудио 2: Английский/Оригинальная дорожка , AAC / 2.0 / 160 Kbps / 48.0 KHz
Аудио 3: Русский/Многоголосый закадровый (iTunes), AC-3 / 5.1 / 384 Kbps / 48.0 KHz
Аудио 4: Английский/Оригинальная дорожка , AC-3 / 5.1 / 384 Kbps / 48.0 KHz

iTunes Meta Tags

Код: выделить все

Sort Name: Crash Pad
XID: Apple:vendor_id:2017-937712
contentID: 1277289502
Copyright: © 2017 MTAD Films Inc. All Rights Reserved.
Screenwriters: Jeremy Catalino
Producers: Лорен Братман, Уильям Хорберг, Роб Диджи
Director: Кевин Тент
Cast: Нина Добрев, Донал Глисон, Кристина Эпплгейт, Томас Хейден Чёрч, Алийа О’Брайен, Анна Ван Хуфт, Бриттни Ирвин, Нилс Дж Хонестад, Аня Савчич, Владимир Рузич
Studio: Indomitable Entertainment
Rating Annotation: Rated R for strong crude sexual content, language, some nudity, drug use and alcohol abuse.
Rating: 5
Long Description: Стенслэнд, простак и безнадёжный романтик, верит, что обрёл истинную любовь в лице красавицы Морган. Однако для неё молодой любовник - лишь способ отомстить беспутному мужу, на что тот отвечает равноценной монетой, начав разгульную холостяцкую жизнь… в доме Стенслэнда.
Description: Стенслэнд, простак и безнадёжный романтик, верит, что обрёл истинную любовь в лице красавицы Морган. Однако для неё молодой любовник - лишь способ отомстить беспутному мужу, на что тот отвечает равноценной монетой, начав разгульную холостяцкую жизнь… в доме Стенслэнда.
Release Date: 2017-09-26T08:00:00Z
Genre: Comedy
Artist: Kevin Tent
Name: Crash Pad

MediaInfo

Код: выделить все

General
Complete name : /Users/imac/HandBrake/Crash.Pad.WEB-DL.1080p.m4v
Format : MPEG-4
Codec ID : M4V
File size : 3.69 GiB
Duration : 1h 33mn
Overall bit rate mode : Variable
Overall bit rate : 5 659 Kbps
Movie name : Crash Pad
Performer : Kevin Tent
Director : Кевин Тент
Actor : Нина Добрев / Донал Глисон / Кристина Эпплгейт / Томас Хейден Чёрч / Алийа О’Брайен / Анна Ван Хуфт / Бриттни Ирвин / Нилс Дж Хонестад / Аня Савчич / Владимир Рузич
Screenplay by : Jeremy Catalino
Producer : Лорен Братман / Уильям Хорберг / Роб Диджи
Production studio : Indomitable Entertainment
Genre : Comedy
ContentType : Short Film
Description : Стенслэнд, простак и безнадёжный романтик, верит, что обрёл истинную любовь в лице красавицы Морган. Однако для неё молодой любовник - лишь способ отомстить беспутному мужу, на что тот отвечает равноценной монетой, начав разгульную холостяцкую жизнь… в доме Стенслэнда.
Recorded date : UTC 2017-09-26 08:00:00
Encoded date : UTC 2017-12-03 09:13:09
Tagged date : UTC 2017-12-03 09:16:13
Copyright : © 2017 MTAD Films Inc. All Rights Reserved.
Cover : Yes
Rating : None
Title/Sort : Crash Pad
LongDescription : Стенслэнд, простак и безнадёжный романтик, верит, что обрёл истинную любовь в лице красавицы Морган. Однако для неё молодой любовник - лишь способ отомстить беспутному мужу, на что тот отвечает равноценной монетой, начав разгульную холостяцкую жизнь… в доме Стенслэнда.
AppleStoreCatalogID : 1277289502
Vendor : Apple:vendor_id:2017-937712
ContentRating : mpaa|R|400|Rated R for strong crude sexual content, language, some nudity, drug use and alcohol abuse.

Video #1
ID : 1
Format : AVC
Format/Info : Advanced Video Codec
Format profile : High@L4
Format settings, CABAC : Yes
Format settings, ReFrames : 5 frames
Codec ID : avc1
Codec ID/Info : Advanced Video Coding
Duration : 1h 33mn
Bit rate : 4 569 Kbps
Width : 1 920 pixels
Height : 804 pixels
Display aspect ratio : 2.40:1
Frame rate mode : Variable
Frame rate : 23.976 fps
Minimum frame rate : 22.727 fps
Maximum frame rate : 24.390 fps
Color space : YUV
Chroma subsampling : 4:2:0
Bit depth : 8 bits
Scan type : Progressive
Bits/(Pixel*Frame) : 0.123
Stream size : 2.98 GiB (81%)
Title : Main Program
Language : English
Encoded date : UTC 2017-12-03 09:13:09
Tagged date : UTC 2017-12-03 09:14:50
Color range : Limited
Color primaries : BT.709
Transfer characteristics : BT.709
Matrix coefficients : BT.709

Video #2
ID : 10
Format : JPEG
Codec ID : jpeg
Duration : 1h 33mn
Bit rate mode : Variable
Bit rate : 845 bps
Width : 640 pixels
Height : 268 pixels
Display aspect ratio : 2.40:1
Frame rate mode : Variable
Frame rate : 0.003 fps
Minimum frame rate : 0.002 fps
Maximum frame rate : 0.004 fps
Color space : YUV
Chroma subsampling : 4:2:0
Bit depth : 8 bits
Compression mode : Lossy
Bits/(Pixel*Frame) : 1.642
Stream size : 550 KiB (0%)
Title : Chapter Images
Language : English
Encoded date : UTC 2017-12-03 09:14:56
Tagged date : UTC 2017-12-03 09:14:56

Audio #1
ID : 2
Format : AAC
Format/Info : Advanced Audio Codec
Format profile : LC
Codec ID : 40
Duration : 1h 33mn
Source duration : 1h 33mn
Bit rate mode : Variable
Bit rate : 156 Kbps
Maximum bit rate : 249 Kbps
Channel(s) : 2 channels
Channel positions : Front: L R
Sampling rate : 48.0 KHz
Compression mode : Lossy
Stream size : 104 MiB (3%)
Source stream size : 104 MiB (3%)
Title : Russian Stereo
Language : Russian
Encoded date : UTC 2017-12-03 09:13:09
Tagged date : UTC 2017-12-03 09:13:13

Audio #2
ID : 3
Format : AAC
Format/Info : Advanced Audio Codec
Format profile : LC
Codec ID : 40
Duration : 1h 33mn
Source duration : 1h 33mn
Bit rate mode : Variable
Bit rate : 157 Kbps
Maximum bit rate : 224 Kbps
Channel(s) : 2 channels
Channel positions : Front: L R
Sampling rate : 48.0 KHz
Compression mode : Lossy
Stream size : 105 MiB (3%)
Source stream size : 105 MiB (3%)
Title : English Stereo
Language : English
Encoded date : UTC 2017-12-03 09:13:09
Tagged date : UTC 2017-12-03 09:13:13

Audio #3
ID : 4
Format : AC-3
Format/Info : Audio Coding 3
Mode extension : CM (complete main)
Format settings, Endianness : Big
Codec ID : ac-3
Duration : 1h 33mn
Bit rate mode : Constant
Bit rate : 384 Kbps
Channel(s) : 6 channels
Channel positions : Front: L C R, Side: L R, LFE
Sampling rate : 48.0 KHz
Bit depth : 16 bits
Compression mode : Lossy
Stream size : 256 MiB (7%)
Title : Russian DD 5.1
Language : Russian
Encoded date : UTC 2017-12-03 09:13:09
Tagged date : UTC 2017-12-03 09:14:50

Audio #4
ID : 5
Format : AC-3
Format/Info : Audio Coding 3
Mode extension : CM (complete main)
Format settings, Endianness : Big
Codec ID : ac-3
Duration : 1h 33mn
Bit rate mode : Constant
Bit rate : 384 Kbps
Channel(s) : 6 channels
Channel positions : Front: L C R, Side: L R, LFE
Sampling rate : 48.0 KHz
Bit depth : 16 bits
Compression mode : Lossy
Stream size : 256 MiB (7%)
Title : English DD 5.1
Language : English
Encoded date : UTC 2017-12-03 09:13:09
Tagged date : UTC 2017-12-03 09:14:50

Text #1
ID : 6
Format : Timed Text
Muxing mode : sbtl
Codec ID : tx3g
Duration : 1h 33mn
Bit rate mode : Variable
Bit rate : 1 bps
Stream size : 829 Bytes (0%)
Title : Russian forced
Language : Russian
Encoded date : UTC 2017-12-03 09:13:09
Tagged date : UTC 2017-12-03 09:14:50

Text #2
ID : 7
Format : Timed Text
Muxing mode : sbtl
Codec ID : tx3g
Duration : 1h 33mn
Bit rate mode : Variable
Bit rate : 137 bps
Stream size : 93.5 KiB (0%)
Title : Russian full
Language : Russian
Encoded date : UTC 2017-12-03 09:13:09
Tagged date : UTC 2017-12-03 09:14:50

Text #3
ID : 8
Format : Timed Text
Muxing mode : sbtl
Codec ID : tx3g
Duration : 1h 32mn
Bit rate mode : Variable
Bit rate : 89 bps
Stream size : 60.8 KiB (0%)
Title : English full
Language : English
Encoded date : UTC 2017-12-03 09:13:09
Tagged date : UTC 2017-12-03 09:14:50

Menu #1
00:00:00.000 : 1
00:06:02.487 : 2
00:11:05.706 : 3
00:16:22.105 : 4
00:22:13.623 : 5
00:28:15.443 : 6
00:32:13.347 : 7
00:38:15.083 : 8
00:44:03.222 : 9
00:50:01.538 : 10
00:54:30.557 : 11
01:01:33.688 : 12
01:05:48.901 : 13
01:12:32.137 : 14
01:16:51.396 : 15
01:22:24.479 : 16

Menu #2
ID : 9
Codec ID : text
Duration : 1h 33mn
Language : English
Encoded date : UTC 2017-12-03 09:14:50
Tagged date : UTC 2017-12-03 09:14:50
00:00:00.000 : 1
00:06:02.487 : 2
00:11:05.706 : 3
00:16:22.105 : 4
00:22:13.623 : 5
00:28:15.443 : 6
00:32:13.347 : 7
00:38:15.083 : 8
00:44:03.222 : 9
00:50:01.538 : 10
00:54:30.557 : 11
01:01:33.688 : 12
01:05:48.901 : 13
01:12:32.137 : 14
01:16:51.396 : 15
01:22:24.479 : 16
Bit rate mode : VBR
Скриншоты:







Релиз подготовлен для просмотра на Apple TV, iPad, iPhone, iPod Touch.
Для просмотра данного релиза на компьютере с ОС Windows рекомендуется использовать VLC media player

Смотреть Online

http://moonwalk.cc/video/d42e2425d9a2fdc8/iframe
Детали торрента:
Название:Ночлежка / Crash Pad (2017) WEB-DL [1080p] ATV
Дата добавления:03 Дек 2017 23:44:14
Размер:3,69 GB
Раздают:3
Качают:0
Форум:Зарубежное видео HD для устройств Apple

All rights reserved © 2015-2018