TORRENTS43.COM

Скачать Сверхъестественное / Supernatural (2017) WEB-DLRip [H.264/1080p-LQ] (сезон 13, серии 1-23 из 23) Lostfilm


Сверхъестественное / Supernatural (2017) WEB-DLRip [H.264/1080p-LQ] (сезон 13, серии 1-23 из 23)
Производство: США / Kripke Enterprises, Warner Bros. Television, Supernatural Films, Wonderland Sound and Vision
Жанр: ужасы, фэнтези, триллер, драма, детектив

Режиссер: Роберт Сингер, Филип Сгриккиа, Джон Шоуолтер
Актеры: Джаред Падалеки, Дженсен Эклс, Джим Бивер, Миша Коллинз, Марк Шеппард, Марк Пеллегрино, Женевьев Падалеки, Кэти Кэссиди, Джеймс Патрик Стюарт, Саманта Феррис и др.

Описание:
13 сезон - счастливое число для Винчестеров, счастливое число для Сверхъестественного, где братья Дин и Сэм Винчестеры ни на секунду не останавливают свой беспрерывный труд поиска и уничтожения демонов на территории США! Появление на свет сына Люцифера - Джека, открывшего двери в другой мир, где нет справедливости и братьев Винчестеров, лишь только постоянно воюющие бесы и ангелы, окончательно запутало взаимоотношения братьев с потусторонними силами. В этот другой мир как раз попала мать братьев - Мэри Винчестер. В реальном мире Сэм и Дин пытаются смириться с потерей матери, да и трагическая смерть Кастиэля заставляет их переосмыслить собственное будущее. Однако, несмотря на творящийся вокруг них ад, братья заявляют, что и на этот раз справятся и найдут выход из положения.


Возраст: 16+ (зрителям, достигшим 16 лет)

Продолжительность: ~00:43:00 серия
Качество видео: WEB-DLRip
Перевод: Многоголосый закадровый, профессиональный - Lostfilm
Реклама: присутствует заставка и логотип Lostfilm

Видео: AVC/H.264, 1912x1072 (16:9), ~5240 kbps
Аудио 1: AC3, 2 ch, 384 kbps — русский, многоголосый закадровый
Аудио 2: AC3, 2 ch, 384 kbps — английский

Mediainfo:


General
Unique ID : 251193330352693381960409967023479667538 (0xBCFA135F7AE7F3728AAB9A3A54413B52)
Complete name : \Supernatural\Supernatural - Season 13\Supernatural.S13E01.1080p.rus.mkv
Format : Matroska
Format version : Version 4 / Version 2
File size : 1.76 GiB
Duration : 41 min 54 s
Overall bit rate : 6 011 kb/s
Encoded date : UTC 2017-10-15 15:24:39
Writing application : mkvmerge v9.5.0 ('Quiet Fire') 64bit
Writing library : libebml v1.3.4 + libmatroska v1.4.5

Video
ID : 1
Format : AVC
Format/Info : Advanced Video Codec
Format profile : High@L4.1
Format settings, CABAC : Yes
Format settings, RefFrames : 4 frames
Codec ID : V_MPEG4/ISO/AVC
Duration : 41 min 54 s
Bit rate : 5 242 kbps
Width : 1 912 pixels
Height : 1 072 pixels
Display aspect ratio : 16:9
Frame rate mode : Constant
Frame rate : 23.976 (24000/1001) FPS
Original frame rate : 23.976 (23976/1000) FPS
Color space : YUV
Chroma subsampling : 4:2:0
Bit depth : 8 bits
Scan type : Progressive
Bits/(Pixel*Frame) : 0.107
Stream size : 1.53 GiB (87%)
Writing library : x264 core 112 r1834 a51816a
Encoding settings : cabac=1 / ref=4 / deblock=1:-3:-2 / analyse=0x3:0x113 / me=hex / subme=7 / psy=1 / psy_rd=1.00:0.00 / mixed_ref=1 / me_range=16 / chroma_me=1 / trellis=1 / 8x8dct=1 / cqm=0 / deadzone=21,11 / fast_pskip=1 / chroma_qp_offset=-2 / threads=12 / sliced_threads=0 / nr=0 / decimate=1 / interlaced=0 / constrained_intra=0 / bframes=5 / b_pyramid=2 / b_adapt=1 / b_bias=0 / direct=1 / weightb=1 / open_gop=0 / weightp=2 / keyint=250 / keyint_min=25 / scenecut=40 / intra_refresh=0 / rc_lookahead=40 / rc=2pass / mbtree=1 / bitrate=5242 / ratetol=1.0 / qcomp=0.60 / qpmin=0 / qpmax=51 / qpstep=4 / cplxblur=20.0 / qblur=0.5 / vbv_maxrate=10000 / vbv_bufsize=256000 / ip_ratio=1.40 / aq=1:1.00 / nal_hrd=none
Default : Yes
Forced : No

Audio #1
ID : 2
Format : AC-3
Format/Info : Audio Coding 3
Format settings, Endianness : Big
Codec ID : A_AC3
Duration : 41 min 52 s
Bit rate mode : Constant
Bit rate : 384 kbps
Channel(s) : 2 channels
Channel positions : Front: L R
Sampling rate : 48.0 kHz
Frame rate : 31.250 FPS (1536 SPF)
Bit depth : 16 bits
Compression mode : Lossy
Stream size : 115 MiB (6%)
Service kind : Complete Main
Default : Yes
Forced : No

Audio #2
ID : 3
Format : AC-3
Format/Info : Audio Coding 3
Format settings, Endianness : Big
Codec ID : A_AC3
Duration : 41 min 54 s
Bit rate mode : Constant
Bit rate : 384 kbps
Channel(s) : 2 channels
Channel positions : Front: L R
Sampling rate : 48.0 kHz
Frame rate : 31.250 FPS (1536 SPF)
Bit depth : 16 bits
Compression mode : Lossy
Stream size : 115 MiB (6%)
Service kind : Complete Main
Default : No
Forced : No

Список серий:

01. Потерянное и обретенное / Lost and Found
02. Сын растет / The Rising Son
03. Пейшенс / Patience
04. Вселенская пустота / The Big Empty
05. Танатология для продвинутых / Advanced Thanatology
06. Тумстоун: Легенда Дикого Запада / Tombstone
07. Война миров / War of the Worlds
08. Скорпион и лягушка / The Scorpion and the Frog
09. Нехорошее место / The Bad Place
10. Блудные сестры / Wayward Sisters
11. Крушение / Breakdown
12. Злодеи бывают разные / Various & Sundry Villains
13. Сделка с дьяволом / Devil's Bargain
14. Благие намерения / Good Intentions
15. Самый святой человек / A Most Holy Man
16. Скубиестественное / ScoobyNatural
17. Нечто / The Thing
18. Вернуть их живыми / Bring 'Em Back Alive
19. Панихида / Funeralia
20. Незаконченное дело / Unfinished Business
21. Победить дьявола / Beat the Devil
22. Исход / Exodus
23. Вспомним былые деньки / Let the Good Times Roll
Скриншоты:


Все одноименные релизы в Клубе

Смотреть Online

http://moonwalk.cc/video/2a49a22bf3961645/iframe
Детали торрента:
Название:Сверхъестественное / Supernatural (2017) WEB-DLRip [H.264/1080p-LQ] (сезон 13, серии 1-23 из 23) Lostfilm
Дата добавления:21 Май 2018 05:21:22
Размер:40,8 GB
Раздают:37
Качают:17
Форум:Сверхъестественное / Supernatural

All rights reserved © 2015-2018