TORRENTS43.COM

Скачать Александра Пахмутова - Зарево любви (1996) [APE|Lossless|image + .cue] <Советская эстрада, Ретро>


Александра Пахмутова - Зарево любви (1996)
Жанр: Советская эстрада, Ретро
Издание: Мелодия - MEL CD 60 00476
Источник: discogs
Продолжительность: 01:14:18

Кодек: APE
Битрейт: Lossless
Тип рипа: image + .cue

Треклист:
01. Русский вальс (Юлиан) 4:24
02. Не всё потеряно (Тамара Гвердцители) 3:16
03. Звёздная река (Юлиан) 4:14
04. Вера (Ирина Шведова) 3:34
05. Песенка о господах и госпоже (Юлиан) 2:47
06. Остаюсь (Людмила Гурченко) 3:44
07. Вишнёвый сад (Юлиан) 4:12
08. Ах, печаль, ты моя печаль (Нонна Мордюкова) 3:33
09. Бездорожье (Юлиан) 3:56
10. Маяк любви (Юлиан) 3:41
11. Испанский мотив (Заур Тутов) 3:30
12. Чёрно-белая судьба (Юрий Шиврин) 3:13

Продолжение треклиста

13. Зарево любви (Юлиан) 4:49
14. Девочка Грёза (Юлиан) 3:52
15. Россиянка (Валентина Толкунова) 2:53
16. Люби меня (Юлиан) 3:18
17. Говорили-балакали (Надежда Бабкина и Татьяна Саванова) 3:19
18. Ты танцуешь. Я пою (Юлиан) 3:30
19. Новороссийские ветра (Ансамбль «Добры молодцы») 4:12
20. Последние (Иосиф Кобзон) 3:32

Дополнительная информация:

Советский и российский композитор, автор более 400 песен. С детства отличалась исключительной музыкальной одарённостью. Первые мелодии написала в трёхлетнем возрасте. В возрасте пяти лет сочинила пьесу для фортепиано «Петухи поют».
Песни Александры Пахмутовой исполняли и исполняют многие известные артисты советской и российской эстрады и кино. Вклад Пахмутовой в отечественную музыку был не раз отмечен наградами и премиями. Александра Пахмутова получила статус почетного гражданина трех городов: Волгограда, Братска и Москвы. Ее именем была названа в 1976 году малая планета № 1889.

Отчёт EAC:


Exact Audio Copy V0.99 prebeta 5 from 4. May 2009

Отчёт EAC об извлечении, выполненном 10. декабря 2009, 3:10

Александра Пахмутова / Зарево любви

Дисковод: Optiarc DVD RW AD-7191A Adapter: 0 ID: 0

Режим чтения : Достоверность
Использование точного потока : Да
Отключение кэша аудио : Да
Использование указателей C2 : Нет

Коррекция смещения при чтении : 6
Способность читать области Lead-in и Lead-out : Нет
Заполнение пропущенных сэмплов тишиной : Да
Удаление блоков с тишиной в начале и конце : Нет
При вычислениях CRC использовались нулевые сэмплы : Да
Интерфейс : Установленный внешний ASPI-интерфейс

Выходной формат : Внутренние WAV-операции
Формат сэмплов : 44.100 Гц; 16 бит; стерео

TOC извлечённого CD

Трек | Старт | Длительность | Начальный сектор | Конечный сектор
---------------------------------------------------------------------
1 | 0:00.00 | 4:25.42 | 0 | 19916
2 | 4:25.42 | 3:18.08 | 19917 | 34774
3 | 7:43.50 | 4:16.07 | 34775 | 53981
4 | 11:59.57 | 3:36.38 | 53982 | 70219
5 | 15:36.20 | 2:49.05 | 70220 | 82899
6 | 18:25.25 | 3:47.05 | 82900 | 99929
7 | 22:12.30 | 4:14.37 | 99930 | 119016
8 | 26:26.67 | 3:34.28 | 119017 | 135094
9 | 30:01.20 | 3:58.42 | 135095 | 152986
10 | 33:59.62 | 3:44.00 | 152987 | 169786
11 | 37:43.62 | 3:32.63 | 169787 | 185749
12 | 41:16.50 | 3:15.40 | 185750 | 200414
13 | 44:32.15 | 4:51.72 | 200415 | 222311
14 | 49:24.12 | 3:55.18 | 222312 | 239954
15 | 53:19.30 | 2:56.32 | 239955 | 253186
16 | 56:15.62 | 3:21.30 | 253187 | 268291
17 | 59:37.17 | 3:20.68 | 268292 | 283359
18 | 62:58.10 | 3:32.65 | 283360 | 299324
19 | 66:31.00 | 4:14.67 | 299325 | 318441
20 | 70:45.67 | 3:32.33 | 318442 | 334374

Характеристики диапазона извлечения и сообщения об ошибках

Выбранный диапазон

Имя файла D:\Александра Пахмутова - Зарево любви.wav

Пиковый уровень 97.7 %
Качество диапазона 99.9 %
CRC копии 8EC24F69
Копирование... OK

Ошибок не произошло

Конец отчёта

Cue Sheet (.cue):


REM GENRE Oldies
REM DATE 1996
REM DISCID 37116A14
REM COMMENT "ExactAudioCopy v0.99pb5"
PERFORMER "Александра Пахмутова"
TITLE "Зарево любви"
FILE "Александра Пахмутова - Зарево любви.ape" WAVE
TRACK 01 AUDIO
TITLE "Русский вальс"
PERFORMER "Юлиан"
INDEX 01 00:00:00
TRACK 02 AUDIO
TITLE "Не всё потеряно"
PERFORMER "Тамара Гвердцители"
INDEX 00 04:24:25
INDEX 01 04:25:42
TRACK 03 AUDIO
TITLE "Звёздная река"
PERFORMER "Юлиан"
INDEX 00 07:41:62
INDEX 01 07:43:50
TRACK 04 AUDIO
TITLE "Вера"
PERFORMER "Ирина Шведова"
INDEX 00 11:57:62
INDEX 01 11:59:57
TRACK 05 AUDIO
TITLE "Песенка о господах и госпоже"
PERFORMER "Юлиан"
INDEX 00 15:34:25
INDEX 01 15:36:20
TRACK 06 AUDIO
TITLE "Остаюсь"
PERFORMER "Людмила Гурченко"
INDEX 00 18:23:25
INDEX 01 18:25:25
TRACK 07 AUDIO
TITLE "Вишнёвый сад"
PERFORMER "Юлиан"
INDEX 00 22:09:62
INDEX 01 22:12:30
TRACK 08 AUDIO
TITLE "Ах, печаль, ты моя печаль"
PERFORMER "Нонна Мордюкова"
INDEX 00 26:24:37
INDEX 01 26:26:67
TRACK 09 AUDIO
TITLE "Бездорожье"
PERFORMER "Юлиан"
INDEX 00 30:00:37
INDEX 01 30:01:20
TRACK 10 AUDIO
TITLE "Маяк любви"
PERFORMER "Юлиан"
INDEX 00 33:57:25
INDEX 01 33:59:62
TRACK 11 AUDIO
TITLE "Испанский мотив"
PERFORMER "Заур Тутов"
INDEX 00 37:41:00
INDEX 01 37:43:62
TRACK 12 AUDIO
TITLE "Чёрно-белая судьба"
PERFORMER "Юрий Шиврин"
INDEX 00 41:14:00
INDEX 01 41:16:50
TRACK 13 AUDIO
TITLE "Зарево любви"
PERFORMER "Юлиан"
INDEX 00 44:29:62
INDEX 01 44:32:15
TRACK 14 AUDIO
TITLE "Девочка Грёза"
PERFORMER "Юлиан"
INDEX 00 49:21:25
INDEX 01 49:24:12
TRACK 15 AUDIO
TITLE "Россиянка"
PERFORMER "Валентина Толкунова"
INDEX 00 53:16:37
INDEX 01 53:19:30
TRACK 16 AUDIO
TITLE "Люби меня"
PERFORMER "Юлиан"
INDEX 00 56:13:25
INDEX 01 56:15:62
TRACK 17 AUDIO
TITLE "Говорили-балакали"
PERFORMER "Надежда Бабкина и Татьяна Саванова"
INDEX 00 59:34:57
INDEX 01 59:37:17
TRACK 18 AUDIO
TITLE "Ты танцуешь. Я пою"
PERFORMER "Юлиан"
INDEX 00 62:56:25
INDEX 01 62:58:10
TRACK 19 AUDIO
TITLE "Новороссийские ветра"
PERFORMER "Ансамбль «Добры молодцы»"
INDEX 00 66:28:25
INDEX 01 66:31:00
TRACK 20 AUDIO
TITLE "Последние"
PERFORMER "Иосиф Кобзон"
INDEX 00 70:43:50
INDEX 01 70:45:67

Отчёт auCDtect Task manager:


-----------------------

DON'T MODIFY THIS FILE

-----------------------

PERFORMER: auCDtect Task Manager, ver. 1.6.0 RC1 build 1.6.0.1
Copyright (c) 2008-2010 y-soft. All rights reserved
http://y-soft.org

ANALYZER: auCDtect: CD records authenticity detector, version 0.8.2
Copyright (c) 2004 Oleg Berngardt. All rights reserved.
Copyright (c) 2004 Alexander Djourik. All rights reserved.

FILE: Александра Пахмутова - Зарево любви.ape
Size: 386584072 Hash: B1DA47371951B0FBE600B79ECA3E14A7 Accuracy: -m0
Conclusion: CDDA 99%
Signature: C11C6E26EFAF8EFA765EC2AD9CBA4AEF192862E1
Детали торрента:
Название:Александра Пахмутова - Зарево любви (1996) [APE|Lossless|image + .cue] <Советская эстрада, Ретро>
Дата добавления:07 Дек 2017 21:25:34
Размер:372 MB
Раздают:1
Качают:0
Форум:Советская эстрада, Ретро (Lossless)

All rights reserved © 2015-2018