TORRENTS43.COM

Скачать Падение Ордена / Knightfall (2017) WEB-DLRip (сезон 1, серии 1-10 из 10) LostFilm


Падение Ордена / Knightfall (2017) WEB-DLRip (сезон 1, серии 1-10 из 10)
Производство: США / A+E Studios, Midnight Radio, Stillking Films
Жанр: боевик, драма, приключения

Режиссер: Дуглас Маккиннон, Метин Хусейн, Дэвид Петрарка
Актеры: Том Каллен, Падрейк Делани, Саймон Мерреллс, Оливия Росс, Джулиан Овенден, Эд Стоппард, Сабрина Бартлетт, Бобби Шофилд, Сара-Софи Бусснина, Нассер Мемарзиа и др.

Описание:
Действие сериала разворачивается вокруг самой драгоценной и загадочной реликвии христианства — Святого Грааля, бесследно утерянного в результате падения города Акры, последнего оплота тамплиеров. Существование Ордена теперь под угрозой и зависит от того, будет ли найден Кубок Христа. На поиски Грааля отправляется предводитель тамплиеров — храбрый воин сэр Лэндри, чтобы помешать уничтожению Ордена.


Возраст: 18+ (зрителям, достигшим 18 лет)
Дата мировой премьеры: 6 декабря 2017


Продолжительность: ~00:44:00 серия
Качество видео: WEB-DLRip
Перевод: Многоголосый закадровый, профессиональный - LostFilm

Видео: XviD, 720x400 (16:9), ~1505 kbps
Аудио 1: MP3, 48,0 kHz, 2 ch, 128 kbps — русский, многоголосый закадровый
Аудио 2: MP3, 48,0 kHz, 2 ch, 128 kbps — английский

MediaInfo


Общее
Полное имя : D:\Падение Ордена (сезон 1) Knightfall (2017) WEB-DLRip - LostFilm\Knightfall.S01E01.WEB-DLRip.Rus.Eng.DV.LostFilm.avi
Формат : AVI
Формат/Информация : Audio Video Interleave
Размер файла : 563 Мбайт
Продолжительность : 44 м. 20 с.
Общий поток : 1775 Кбит/сек
Название фильма : Knightfall.S01E01.WEB-DLRip.Rus.Eng.DV.LostFilm / torrents43.com />Программа кодирования : VirtualDubModRus 1.5.10.2 (build 2542/release)
Библиотека кодирования : VirtualDubMod build 2542/release

Видео
Идентификатор : 0
Формат : MPEG-4 Visual
Профиль формата : Advanced Simple@L5
Настройки формата : BVOP2
Параметр BVOP формата : 2
Параметр QPel формата : Нет
Параметр GMC формата : Без точки перехода
Параметр матрицы формата : Default (H.263)
Идентификатор кодека : XVID
Идентификатор кодека/Подсказка : XviD
Продолжительность : 44 м. 20 с.
Битрейт : 1505 Кбит/сек
Ширина : 720 пикселей
Высота : 400 пикселей
Соотношение сторон : 16:9
Частота кадров : 23,976 (24000/1001) кадра/сек
Цветовое пространство : YUV
Субдискретизация насыщенности : 4:2:0
Битовая глубина : 8 бит
Тип развёртки : Прогрессивная
Метод сжатия : С потерями
Бит/(Пиксели*Кадры) : 0.218
Размер потока : 477 Мбайт (85%)
Заголовок : Rip by DriverV / torrents43.com />Библиотека кодирования : XviD 67

Аудио #1
Идентификатор : 1
Формат : MPEG Audio
Версия формата : Version 1
Профиль формата : Layer 3
Настройки формата : Joint stereo / MS Stereo
Идентификатор кодека : 55
Идентификатор кодека/Подсказка : MP3
Продолжительность : 44 м. 20 с.
Вид битрейта : Постоянный
Битрейт : 128 Кбит/сек
Каналы : 2 канала
Частота : 48,0 КГц
Метод сжатия : С потерями
Размер потока : 40,6 Мбайт (7%)
Выравнивание : Соединение по промежуткам
Продолжительность промежутка : 42 мс. (1,00 видеокадр)
Время предзагрузки промежутка : 504 мс.

Аудио #2
Идентификатор : 2
Формат : MPEG Audio
Версия формата : Version 1
Профиль формата : Layer 3
Настройки формата : Joint stereo / MS Stereo
Идентификатор кодека : 55
Идентификатор кодека/Подсказка : MP3
Продолжительность : 44 м. 20 с.
Вид битрейта : Постоянный
Битрейт : 128 Кбит/сек
Каналы : 2 канала
Частота : 48,0 КГц
Метод сжатия : С потерями
Размер потока : 40,6 Мбайт (7%)
Выравнивание : Соединение по промежуткам
Продолжительность промежутка : 42 мс. (1,00 видеокадр)
Время предзагрузки промежутка : 504 мс.

Список серий

01. You'd Know What to Do / Ты знаешь, что делать
02. Find Us the Grail / Найди нам Грааль
03. The Black Wolf and the White Wolf / Черный волк и белый волк
04. He Who Discovers His Own Self, Discovers God / Познавший себя познает и Бога
05. Hard Blows Will Banish the Sin / Сильным ударом изгонится грех
06. The Pilgrimage of Chains / Паломничество цепей
07. And Certainly Not the Cripple / Уж точно не калеке
08. IV / IV
09. Fiat! / Да будет так
10. Do You See the Blue? / Ты видишь синеву?

Дополнительная информация

"Чистый" кадр. Вступительная заставка и логотип LostFilm отсутствуют.
Скриншоты:



Все одноименные релизы в Клубе

Смотреть Online

http://moonwalk.cc/serial/c68b96576b400e6cb8d6dc6805b6c7ae/iframe
Детали торрента:
Название:Падение Ордена / Knightfall (2017) WEB-DLRip (сезон 1, серии 1-10 из 10) LostFilm
Дата добавления:10 Фев 2018 08:17:57
Размер:5,43 GB
Раздают:23
Качают:2
Форум:Зарубежные сериалы

All rights reserved © 2015-2018