TORRENTS43.COM

Скачать Русский ответ. Наши атлеты под нейтральным флагом: предатели или жертвы? (06.12.2017) WEBRip [H.264/1080p-LQ]


Русский ответ. Наши атлеты под нейтральным флагом: предатели или жертвы? (06.12.2017) WEBRip
Телекомпания: Россия, Царьград
Жанр: Политика

Ведущий: Андрей Афанасьев
Участники: Татьяна Лебедева, Александр Шерин

Описание:
Ежедневная аналитическая программа журналиста-международника Андрея Афанасьева. Область интересов: геополитика, этносоциология, теория многополярного мира, политика США и Западной Европы.

Решение МОК отказать российской сборной в праве на участие в олимпийских играх 2018 года в Южной Корее вызвало шквал негодования в прессе и социальных сетях. Главный спор внутри российского общества прошел по водоразделу между позициями «бойкотировать игры как таковые» или «ехать под нейтральным флагом». Кем считать спортсменов, решивших отправиться на Олимпиаду-2018 без русского триколора: циничными предателями или жертвами обстоятельств?
В гостях программы: депутат Госдумы, первый заместитель председателя комитета ГД по обороне Александр Николаевич Шерин и член Совета Федерации, олимпийская чемпионка 2004 года в прыжках в длину, многократная чемпионка мира, Европы и России Татьяна Романовна Лебедева.

Продолжительность: 00:26:09
Качество видео: WEBRip

Видео: AVC/H.264, 1920x1080 (16:9), ~4000 Kbps
Аудио: AAC, 2 ch, 204 Kbps

Mediainfo:


General
Unique ID : 233257241637587583869499046960366661439 (0xAF7BB5EC99F14A318C070693E6B8AF3F)
Complete name : D:\Film\Русский ответ Наши атлеты под нейтральным флагом предатели или жертвы.mkv
Format : Matroska
Format version : Version 4 / Version 2
File size : 801 MiB
Duration : 26 min 9 s
Overall bit rate : 4 278 kb/s
Encoded date : UTC 2017-12-10 17:46:57
Writing application : mkvmerge v18.0.0 ('Apricity') 64-bit
Writing library : libebml v1.3.5 + libmatroska v1.4.8
Cover : Yes
Attachments : cover.png

Video
ID : 1
Format : AVC
Format/Info : Advanced Video Codec
Format profile : High@L4
Format settings : CABAC / 4 Ref Frames
Format settings, CABAC : Yes
Format settings, RefFrames : 4 frames
Codec ID : V_MPEG4/ISO/AVC
Duration : 26 min 9 s
Bit rate : 4 082 kb/s
Width : 1 920 pixels
Height : 1 080 pixels
Display aspect ratio : 16:9
Frame rate mode : Constant
Frame rate : 25.000 FPS
Color space : YUV
Chroma subsampling : 4:2:0
Bit depth : 8 bits
Scan type : Progressive
Bits/(Pixel*Frame) : 0.079
Stream size : 762 MiB (95%)
Writing library : x264 core 142 r2455 021c0dc
Encoding settings : cabac=1 / ref=4 / deblock=1:2:2 / analyse=0x3:0x113 / me=dia / subme=2 / psy=1 / psy_rd=1.00:0.00 / mixed_ref=1 / me_range=16 / chroma_me=1 / trellis=0 / 8x8dct=1 / cqm=0 / deadzone=21,11 / fast_pskip=1 / chroma_qp_offset=0 / threads=36 / lookahead_threads=8 / sliced_threads=0 / nr=0 / decimate=1 / interlaced=0 / bluray_compat=0 / constrained_intra=0 / bframes=0 / weightp=2 / keyint=75 / keyint_min=7 / scenecut=0 / intra_refresh=0 / rc_lookahead=40 / rc=abr / mbtree=1 / bitrate=4082 / ratetol=1.0 / qcomp=0.60 / qpmin=10 / qpmax=51 / qpstep=4 / ip_ratio=0.91 / aq=1:1.00
Language : Russian
Default : Yes
Forced : No

Audio
ID : 2
Format : AAC
Format/Info : Advanced Audio Codec
Format profile : LC
Codec ID : A_AAC-2
Duration : 26 min 9 s
Bit rate : 204 kb/s
Channel(s) : 2 channels
Channel positions : Front: L R
Sampling rate : 44.1 kHz
Frame rate : 43.066 FPS (1024 SPF)
Compression mode : Lossy
Stream size : 38.2 MiB (5%)
Language : Russian
Default : Yes
Forced : No
Скриншоты:


Все одноименные релизы в Клубе
Детали торрента:
Название:Русский ответ. Наши атлеты под нейтральным флагом: предатели или жертвы? (06.12.2017) WEBRip [H.264/1080p-LQ]
Дата добавления:10 Дек 2017 21:03:23
Размер:801 MB
Раздают:
Качают:0
Форум:Публицистика, политика и экономика

All rights reserved © 2015-2018