TORRENTS43.COM

Скачать Гандбол. Чемпионат мира 2017. Женщины. Группа B. 3-й тур. Швеция — Чехия (05.12.2017) WEB-DL [H.264/720p-LQ] [PL]


Гандбол. Чемпионат мира 2017. Женщины. Группа B. 3-й тур. Швеция — Чехия (05.12.2017) WEB-DL [H.264/720p-LQ] [PL]
Телекомпания: TVP Sport HD
Жанр: Спорт

Описание: 05 декабря 2017 года, вторник. 20:00 МСК
Чемпионат мира по гандболу среди женщин 2017 года.
Групповой турнир. Группа B. 3-й тур.
Швеция — Чехия
Судьи: Виктория Альпайдзе (Россия), Татьяна Березкина (Россия)
Стадион: ЭгеТранс Арена (Битигхайм-Биссинген, Германия), 2600 зрителя ей (при вместимости 4517)

Релиз от: chedder_nukakby

Продолжительность: 01:24:22
Качество видео: WEB-DL
Язык озвучки: Польский
Субтитры: отсутствуют

Видео: AVC/H.264, 1280x720 (16:9), ~3483 Kbps
Аудио: AAC, 2 ch, 48 kHz, ~125 Kbps

Mediainfo:


Общее
Уникальный идентификатор : 254535680362794439376139398143037644250 (0xBF7DC9F38D79F63D84C68D33675B9DDA)
Полное имя : F:\SPORT\Гандбол\IHF World Womens Handball Championship 2017\(05.12.2017)_IHF Womens WCh 2017.PR3.Gr B. Sweden - Czech Rep.mkv
Формат : Matroska
Версия формата : Version 4 / Version 2
Размер файла : 2,13 Гбайт
Продолжительность : 1 ч. 24 м.
Общий поток : 3611 Кбит/сек
Дата кодирования : UTC 2017-12-05 20:57:47
Программа кодирования : mkvmerge v12.0.0 ('Trust / Lust') 64bit
Библиотека кодирования : libebml v1.3.4 + libmatroska v1.4.5

Видео
Идентификатор : 1
Формат : AVC
Формат/Информация : Advanced Video Codec
Профиль формата : High@L4.1
Настройки формата : CABAC / 1 Ref Frames
Параметр CABAC формата : Да
Параметр RefFrames формата : 1 кадр
Идентификатор кодека : V_MPEG4/ISO/AVC
Продолжительность : 1 ч. 24 м.
Битрейт : 3483 Кбит/сек
Ширина : 1280 пикселей
Высота : 720 пикселей
Соотношение сторон : 16:9
Режим частоты кадров : Постоянный
Частота кадров : 25,000 кадров/сек
Цветовое пространство : YUV
Субдискретизация насыщенности : 4:2:0
Битовая глубина : 8 бит
Тип развёртки : Прогрессивная
Бит/(Пиксели*Кадры) : 0.151
Размер потока : 2,05 Гбайт (96%)
Default : Да
Forced : Нет
Цветовой диапазон : Limited

Аудио
Идентификатор : 2
Формат : AAC
Формат/Информация : Advanced Audio Codec
Профиль формата : LC
Идентификатор кодека : A_AAC-2
Продолжительность : 1 ч. 24 м.
Битрейт : 125 Кбит/сек
Каналы : 2 канала
Расположение каналов : Front: L R
Частота : 48,0 КГц
Частота кадров : 46,875 кадров/сек (1024 SPF)
Метод сжатия : С потерями
Размер потока : 75,7 Мбайт (3%)
Default : Да
Forced : Нет
Скриншоты:



Детали торрента:
Название:Гандбол. Чемпионат мира 2017. Женщины. Группа B. 3-й тур. Швеция — Чехия (05.12.2017) WEB-DL [H.264/720p-LQ] [PL]
Дата добавления:13 Дек 2017 11:02:01
Размер:2,13 GB
Раздают:
Качают:0
Форум:Архив Документалистики и TV

All rights reserved © 2015-2018