TORRENTS43.COM

Скачать Гандбол. Чемпионат мира 2017. Женщины. Группа D. 3-й тур. Германия — Сербия (05.12.2017) HDTV [H.264/1080i-LQ] [EN]


Гандбол. Чемпионат мира 2017. Женщины. Группа D. 3-й тур. Германия — Сербия (05.12.2017) HDTV [H.264/1080i-LQ] [EN]
Жанр: Спорт

Описание: 05 декабря 2017 года, вторник. 20:00 МСК
Чемпионат мира по гандболу среди женщин 2017 года.
Групповой турнир. Группа D. 3-й тур.
Германия — Сербия
Судьи: Кьерсти Арнцен (Норвегия), Гуро Рёен (Норвегия)
Стадион: Арена Лейпциг (Лейпциг, Германия), 3871 зритель (при вместимости 6500)

Релиз от: Galaktikas

Продолжительность: 01:33:41
Качество видео: HDTV
Язык озвучки: Английский, Интершум
Субтитры: отсутствуют

Видео: AVC/H.264, 1920x1080 (16:9), ~6000 Kbps
Аудио #1: MP2, 2 ch, 48 kHz, 384 Kbps | Интершум
Аудио #2: MP2, 2 ch, 48 kHz, 384 Kbps | Английский

Mediainfo:


Общее
Уникальный идентификатор : 182720014402018860332493098746282355754 (0x8976983F6927FFE893B479109489AC2A)
Полное имя : F:\SPORT\Гандбол\IHF World Womens Handball Championship 2017\(05.12.2017)_IHF Womens WCh 2017.PR3.Gr D. Germany - Serbia.mkv
Формат : Matroska
Версия формата : Version 4 / Version 2
Размер файла : 4,42 Гбайт
Продолжительность : 1 ч. 33 м.
Общий поток : 6753 Кбит/сек
Дата кодирования : UTC 2017-12-06 18:55:22
Программа кодирования : mkvmerge v9.7.1 ('Pandemonium') 64bit
Библиотека кодирования : libebml v1.3.4 + libmatroska v1.4.5

Видео
Идентификатор : 1
Формат : AVC
Формат/Информация : Advanced Video Codec
Профиль формата : High@L4.1
Настройки формата : CABAC / 4 Ref Frames
Параметр CABAC формата : Да
Параметр RefFrames формата : 4 кадра
Идентификатор кодека : V_MPEG4/ISO/AVC
Продолжительность : 1 ч. 33 м.
Битрейт : 6000 Кбит/сек
Ширина : 1920 пикселей
Высота : 1080 пикселей
Соотношение сторон : 16:9
Режим частоты кадров : Постоянный
Частота кадров : 25,000 кадров/сек
Цветовое пространство : YUV
Субдискретизация насыщенности : 4:2:0
Битовая глубина : 8 бит
Тип развёртки : MBAFF
Метод сохранения типа развёртки : Чередующиеся поля
Порядок развёртки : Верхнее поле первое
Бит/(Пиксели*Кадры) : 0.116
Размер потока : 3,91 Гбайт (89%)
Библиотека кодирования : x264 core 152 r2851 ba24899
Настройки программы : cabac=1 / ref=3 / deblock=1:0:0 / analyse=0x3:0x113 / me=hex / subme=7 / psy=1 / psy_rd=1.00:0.00 / mixed_ref=1 / me_range=16 / chroma_me=1 / trellis=1 / 8x8dct=1 / cqm=0 / deadzone=21,11 / fast_pskip=1 / chroma_qp_offset=-2 / threads=18 / lookahead_threads=3 / sliced_threads=0 / nr=0 / decimate=1 / interlaced=tff / bluray_compat=0 / constrained_intra=0 / bframes=3 / b_pyramid=2 / b_adapt=1 / b_bias=0 / direct=1 / weightb=1 / open_gop=0 / weightp=0 / keyint=250 / keyint_min=25 / scenecut=40 / intra_refresh=0 / rc_lookahead=40 / rc=abr / mbtree=1 / bitrate=6000 / ratetol=1.0 / qcomp=0.60 / qpmin=0 / qpmax=69 / qpstep=4 / vbv_maxrate=62500 / vbv_bufsize=78125 / nal_hrd=none / filler=0 / ip_ratio=1.40 / aq=1:1.00
Default : Да
Forced : Нет

Аудио #1
Идентификатор : 2
Формат : MPEG Audio
Версия формата : Version 1
Профиль формата : Layer 2
Идентификатор кодека : A_MPEG/L2
Идентификатор кодека/Подсказка : MP2
Продолжительность : 1 ч. 33 м.
Вид битрейта : Постоянный
Битрейт : 384 Кбит/сек
Каналы : 2 канала
Частота : 48,0 КГц
Частота кадров : 41,667 кадра/сек (1152 SPF)
Метод сжатия : С потерями
Размер потока : 257 Мбайт (6%)
Default : Да
Forced : Нет

Аудио #2
Идентификатор : 3
Формат : MPEG Audio
Идентификатор кодека : A_MPEG/L2
Идентификатор кодека/Подсказка : MP2
Продолжительность : 1 ч. 33 м.
Битрейт : 384 Кбит/сек
Каналы : 2 канала
Частота : 48,0 КГц
Частота кадров : 41,667 кадра/сек (1152 SPF)
Метод сжатия : С потерями
Размер потока : 257 Мбайт (6%)
Default : Нет
Forced : Нет
Скриншоты:



Детали торрента:
Название:Гандбол. Чемпионат мира 2017. Женщины. Группа D. 3-й тур. Германия — Сербия (05.12.2017) HDTV [H.264/1080i-LQ] [EN]
Дата добавления:13 Дек 2017 11:51:04
Размер:4,42 GB
Раздают:
Качают:0
Форум:Архив Документалистики и TV

All rights reserved © 2015-2018