TORRENTS43.COM

Скачать New Order - Music Complete (2015) [FLAC|Lossless|tracks + .cue] <New Wave, Synthpop, Pop-Rock>


New Order / Music Complete (2015)
Жанр: New Wave, Synthpop, Pop-Rock
Издание: Traffic Inc. – TRCP 200 (JPN)
Продолжительность: 01:11:39

Кодек: FLAC
Битрейт: Lossless
Тип рипа: tracks + .cue

Треклист:
01. Restless (5:28)
02. Singularity (5:37)
03. Plastic (6:55)
04. Tutti Frutti (6:23)
05. People On The High Line (5:42)
06. Stray Dog (6:18)
07. Academic (5:55)
08. Nothing But A Fool (7:43)
09. Unlearn This Hatred (4:19)
10. The Game (5:07)
11. Superheated (6:03)
12. Restless [Extended Bonus Mix] (7:09)

Discogs | YouTube:


Отчёт EAC:


Exact Audio Copy V1.0 beta 3 from 29. August 2011

EAC extraction logfile from 22. September 2015, 16:58

New Order / Music Complete

Used drive : PIONEER BD-RW BDR-S08 Adapter: 5 ID: 0

Read mode : Secure
Utilize accurate stream : Yes
Defeat audio cache : Yes
Make use of C2 pointers : No

Read offset correction : 667
Overread into Lead-In and Lead-Out : No
Fill up missing offset samples with silence : Yes
Delete leading and trailing silent blocks : No
Null samples used in CRC calculations : Yes
Used interface : Native Win32 interface for Win NT & 2000
Gap handling : Appended to previous track

Used output format : User Defined Encoder
Selected bitrate : 1024 kBit/s
Quality : High
Add ID3 tag : No
Command line compressor : C:\Program Files\Exact Audio Copy\FLAC\FLAC.EXE
Additional command line options : -8 -V -T "ARTIST=%artist%" -T "TITLE=%title%" -T "ALBUM=%albumtitle%" -T "DATE=%year%" -T "TRACKNUMBER=%tracknr%" -T "GENRE=%genre%" -T "PERFORMER=%albuminterpret%" -T "COMPOSER=%composer%" %haslyrics%--tag-from-file=LYRICS="%lyricsfile%"%haslyrics% -T "ALBUMARTIST=%albumartist%" -T "DISCNUMBER=%cdnumber%" -T "TOTALDISCS=%totalcds%" -T "TOTALTRACKS=%numtracks%" -T "COMMENT=%comment%" %source% -o %dest%

TOC of the extracted CD

Track | Start | Length | Start sector | End sector
---------------------------------------------------------
1 | 0:00.00 | 5:28.18 | 0 | 24617
2 | 5:28.18 | 5:37.02 | 24618 | 49894
3 | 11:05.20 | 6:55.09 | 49895 | 81028
4 | 18:00.29 | 6:22.49 | 81029 | 109727
5 | 24:23.03 | 5:41.44 | 109728 | 135346
6 | 30:04.47 | 6:17.58 | 135347 | 163679
7 | 36:22.30 | 5:54.65 | 163680 | 190294
8 | 42:17.20 | 7:43.12 | 190295 | 225031
9 | 50:00.32 | 4:19.12 | 225032 | 244468
10 | 54:19.44 | 5:06.60 | 244469 | 267478
11 | 59:26.29 | 6:02.59 | 267479 | 294687
12 | 65:29.13 | 7:09.18 | 294688 | 326880

Track 1

Filename W:\EAC RIPS\New Order_Music Complete (2015) [FLAC]\01 - Restless.wav

Pre-gap length 0:00:02.00

Peak level 98.8 %
Extraction speed 5.0 X
Track quality 100.0 %
Test CRC 28FECCAB
Copy CRC 28FECCAB
Track not present in AccurateRip database
Copy OK

Track 2

Filename W:\EAC RIPS\New Order_Music Complete (2015) [FLAC]\02 - Singularity.wav

Peak level 96.3 %
Extraction speed 5.6 X
Track quality 100.0 %
Test CRC BE5DE0F1
Copy CRC BE5DE0F1
Track not present in AccurateRip database
Copy OK

Track 3

Filename W:\EAC RIPS\New Order_Music Complete (2015) [FLAC]\03 - Plastic.wav

Peak level 98.8 %
Extraction speed 6.3 X
Track quality 100.0 %
Test CRC BE03F3CD
Copy CRC BE03F3CD
Track not present in AccurateRip database
Copy OK

Track 4

Filename W:\EAC RIPS\New Order_Music Complete (2015) [FLAC]\04 - Trutti Frutti.wav

Peak level 98.8 %
Extraction speed 6.7 X
Track quality 100.0 %
Test CRC 6982D3CA
Copy CRC 6982D3CA
Track not present in AccurateRip database
Copy OK

Track 5

Filename W:\EAC RIPS\New Order_Music Complete (2015) [FLAC]\05 - People On The High Line.wav

Peak level 98.8 %
Extraction speed 6.4 X
Track quality 99.9 %
Test CRC FC0318B3
Copy CRC FC0318B3
Track not present in AccurateRip database
Copy OK

Track 6

Filename W:\EAC RIPS\New Order_Music Complete (2015) [FLAC]\06 - Stray Dog.wav

Peak level 97.0 %
Extraction speed 7.5 X
Track quality 100.0 %
Test CRC E028572C
Copy CRC E028572C
Track not present in AccurateRip database
Copy OK

Track 7

Filename W:\EAC RIPS\New Order_Music Complete (2015) [FLAC]\07 - Academic.wav

Peak level 98.8 %
Extraction speed 7.1 X
Track quality 99.9 %
Test CRC D20C0ACE
Copy CRC D20C0ACE
Track not present in AccurateRip database
Copy OK

Track 8

Filename W:\EAC RIPS\New Order_Music Complete (2015) [FLAC]\08 - Nothing But A Fool.wav

Peak level 98.8 %
Extraction speed 7.6 X
Track quality 99.9 %
Test CRC 33ACFFC3
Copy CRC 33ACFFC3
Track not present in AccurateRip database
Copy OK

Track 9

Filename W:\EAC RIPS\New Order_Music Complete (2015) [FLAC]\09 - Unlearn This Hatred.wav

Peak level 98.8 %
Extraction speed 7.2 X
Track quality 100.0 %
Test CRC E84A2D5E
Copy CRC E84A2D5E
Track not present in AccurateRip database
Copy OK

Track 10

Filename W:\EAC RIPS\New Order_Music Complete (2015) [FLAC]\10 - The Game.wav

Peak level 98.8 %
Extraction speed 8.4 X
Track quality 100.0 %
Test CRC 788D6FF4
Copy CRC 788D6FF4
Track not present in AccurateRip database
Copy OK

Track 11

Filename W:\EAC RIPS\New Order_Music Complete (2015) [FLAC]\11 - Superheated.wav

Peak level 98.8 %
Extraction speed 8.8 X
Track quality 100.0 %
Test CRC 9D16B376
Copy CRC 9D16B376
Track not present in AccurateRip database
Copy OK

Track 12

Filename W:\EAC RIPS\New Order_Music Complete (2015) [FLAC]\12 - Restless [Extended Bonus Mix].wav

Pre-gap length 0:00:59.77

Peak level 98.9 %
Extraction speed 9.1 X
Track quality 100.0 %
Test CRC 47F06285
Copy CRC 47F06285
Track not present in AccurateRip database
Copy OK

None of the tracks are present in the AccurateRip database

No errors occurred

End of status report

==== Log checksum CBCE4A3FA658B54611B1259737620AAC33CD17B142B71310A3D29FE6B981EE9E ====

Cue Sheet (.cue):


PERFORMER "New Order"
TITLE "Music Complete"
REM DATE 2015
REM DISCNUMBER 1
REM TOTALDISCS 1
REM GENRE "Pop"
FILE "01 - Restless.flac" WAVE
TRACK 01 AUDIO
PERFORMER "New Order"
TITLE "Restless"
INDEX 01 00:00:00
FILE "02 - Singularity.flac" WAVE
TRACK 02 AUDIO
PERFORMER "New Order"
TITLE "Singularity"
INDEX 01 00:00:00
FILE "03 - Plastic.flac" WAVE
TRACK 03 AUDIO
PERFORMER "New Order"
TITLE "Plastic"
INDEX 01 00:00:00
FILE "04 - Tutti Frutti.flac" WAVE
TRACK 04 AUDIO
PERFORMER "New Order"
TITLE "Tutti Frutti"
INDEX 01 00:00:00
FILE "05 - People On The High Line.flac" WAVE
TRACK 05 AUDIO
PERFORMER "New Order"
TITLE "People On The High Line"
INDEX 01 00:00:00
FILE "06 - Stray Dog.flac" WAVE
TRACK 06 AUDIO
PERFORMER "New Order"
TITLE "Stray Dog"
INDEX 01 00:00:00
FILE "07 - Academic.flac" WAVE
TRACK 07 AUDIO
PERFORMER "New Order"
TITLE "Academic"
INDEX 01 00:00:00
FILE "08 - Nothing But A Fool.flac" WAVE
TRACK 08 AUDIO
PERFORMER "New Order"
TITLE "Nothing But A Fool"
INDEX 01 00:00:00
FILE "09 - Unlearn This Hatred.flac" WAVE
TRACK 09 AUDIO
PERFORMER "New Order"
TITLE "Unlearn This Hatred"
INDEX 01 00:00:00
FILE "10 - The Game.flac" WAVE
TRACK 10 AUDIO
PERFORMER "New Order"
TITLE "The Game"
INDEX 01 00:00:00
FILE "11 - Superheated.flac" WAVE
TRACK 11 AUDIO
PERFORMER "New Order"
TITLE "Superheated"
INDEX 01 00:00:00
TRACK 12 AUDIO
PERFORMER "New Order"
TITLE "Restless [Extended Bonus Mix]"
INDEX 00 05:03:01
FILE "12 - Restless [Extended Bonus Mix].flac" WAVE
INDEX 01 00:00:00

Отчёт auCDtect Task manager:


-----------------------

DON'T MODIFY THIS FILE

-----------------------

PERFORMER: auCDtect Task Manager, ver. 1.6.0 RC1 build 1.6.0.1
Copyright (c) 2008-2010 y-soft. All rights reserved
http://y-soft.org

ANALYZER: auCDtect: CD records authenticity detector, version 0.8.2
Copyright (c) 2004 Oleg Berngardt. All rights reserved.
Copyright (c) 2004 Alexander Djourik. All rights reserved.

FILE: 12 - Restless [Extended Bonus Mix].flac
Size: 51523639 Hash: C1644D2BB713E9D3B020B9014BBA12AF Accuracy: -m0
Conclusion: CDDA 100%
Signature: E8CBADB2BA1D12320F70D4D64056F9A5CCA38ED5
FILE: 11 - Superheated.flac
Size: 38567620 Hash: A747F92696AFCF217B1EDC51DDBE0F1F Accuracy: -m0
Conclusion: CDDA 100%
Signature: 67A57C5D8D2D6A465065448F74E40C0AC3888160
FILE: 10 - The Game.flac
Size: 37878383 Hash: D9619D7C5A0398383FC32F32DF11384E Accuracy: -m0
Conclusion: CDDA 100%
Signature: 5B6C8A142F2F02F32126D4E34E51F41924F39266
FILE: 09 - Unlearn This Hatred.flac
Size: 31517427 Hash: 1C49E3F721E2E68B6757DA033B4EF728 Accuracy: -m0
Conclusion: CDDA 99%
Signature: 0A13D96CA5915F885EFEFC624402F49EF2E8E94B
FILE: 08 - Nothing But A Fool.flac
Size: 57852483 Hash: 586F32A05D9A4FFD8FCB1DC80B284572 Accuracy: -m0
Conclusion: CDDA 100%
Signature: C078EFAA0566FE64A437311BF43716F413346946
FILE: 07 - Academic.flac
Size: 45662405 Hash: 80852C36BE3BCEB6A13F9FFAAD5BC4D9 Accuracy: -m0
Conclusion: CDDA 100%
Signature: 28DFB1FD4875C88D2221240B58303794ED8B5236
FILE: 06 - Stray Dog.flac
Size: 43012833 Hash: BDBCBD3443E78B341751C2C6F00BD062 Accuracy: -m0
Conclusion: CDDA 100%
Signature: 09EB383A55916B0FEB49EAE03ABF4CE9A7070BDD
FILE: 05 - People On The High Line.flac
Size: 43909907 Hash: A09356B7CEFD066A03DA757022028D0D Accuracy: -m0
Conclusion: CDDA 100%
Signature: C99CE56F4B6F95FEF349F1165F9F1FEF0F36BB5E
FILE: 04 - Tutti Frutti.flac
Size: 48512479 Hash: AD4760D1D26F247535CB62F478B24A40 Accuracy: -m0
Conclusion: CDDA 99%
Signature: 08C4371C8F0E5EBE741B1E2896042F2FE6FEF9FB
FILE: 03 - Plastic.flac
Size: 51700429 Hash: 3617EFD654189B20922BCDC022D1BD25 Accuracy: -m0
Conclusion: CDDA 100%
Signature: A5ED96B1716141830FCF5B5DB28BFAB460BA0A05
FILE: 02 - Singularity.flac
Size: 43232771 Hash: B3AABD85FC659071D6CA153ED6A45153 Accuracy: -m0
Conclusion: CDDA 100%
Signature: 085906DA3052FC759F490409449DEE80E440F1F3
FILE: 01 - Restless.flac
Size: 43006778 Hash: 9F52785C748B9E6CC010FFBE13D5DD71 Accuracy: -m0
Conclusion: CDDA 99%
Signature: 5DBD6AAD93C225E47B8641D5C7FE98C62D8F81D1




Поглощение/вытеснение
Только с согласия релизера

kudzin
Детали торрента:
Название:New Order - Music Complete (2015) [FLAC|Lossless|tracks + .cue] <New Wave, Synthpop, Pop-Rock>
Дата добавления:13 Дек 2017 22:22:15
Размер:513 MB
Раздают:8
Качают:0
Форум:Synthpop, New Wave (Lossless)

All rights reserved © 2015-2018