TORRENTS43.COM

Скачать Танцы (2017.12.16) HDTV [H.264/1080i] (сезон 4, выпуск 20)


Танцы (2017.12.16) HDTV [H.264/1080i] (сезон 4, выпуск 20)
Телекомпания: ТНТ HD
Жанр: Реалити-шоу, танцы, развлекательный, хореография
Наставники: Татьяна Денисова, Сергей Шестепёров (Мигель) и Сергей Светлаков
Ведущий: Ляйсан Утяшева

Описание:
Танцы 4 сезон, в очередном сезоне любимого миллионами танцевального проекта нас ждет противостояние полов, потому что Егора Дружинина больше нет в числе членов жюри. Его место заняла знаменитый хореограф Татьяна Денисова. С появлением нового судьи будут связаны крупные изменения новых деталей проекта. В проекте окажутся хореографы Татьяны, которые станут трудиться в ее команде. Еще Татьяна Денисова добавит в критерии отбора участников новые фишки, в частности в испытания хореографией. Также у шоу будут полностью новые декорации и новая графика. Как будто это будет не очередной сезон, а новое шоу со сходным названием.


Возраст: 16+ (зрителям, достигшим 16 лет)

Релиз от: 25Kuzmich
Продолжительность: 01:36:03
Качество видео: HDTV
Субтитры: Отсутствуют

Видео: AVC, 1920x1080 (16:9), 25.000 fps, 10.3 Mbps (0.199 bit/pixel)
Аудио: MP2, 48.0 KHz, 2 ch, 192 Kbps, CBR

Mediainfo:

Код: выделить все
 Общее
Идентификатор                            : 1 (0x1)
Полное имя                               : D:\[1]\Танцы\Танцы. Сезон 4. Выпуск 20 (2017.12.16)_1080.ts
Формат                                   : MPEG-TS
Размер файла                             : 7,41 Гбайт
Продолжительность                        : 1 ч. 36 м.
Режим общего битрейта                    : Переменный
Общий поток                              : 11,0 Мбит/сек

Видео
Идентификатор                            : 207 (0xCF)
Идентификатор меню                       : 2207 (0x89F)
Формат                                   : AVC
Формат/Информация                        : Advanced Video Codec
Профиль формата                          : High@L4
Параметр CABAC формата                   : Да
Параметр ReFrames формата                : 4 кадра
Идентификатор кодека                     : 27
Продолжительность                        : 1 ч. 36 м.
Битрейт                                  : 10,3 Мбит/сек
Ширина                                   : 1920 пикселей
Высота                                   : 1080 пикселей
Соотношение сторон                       : 16:9
Частота кадров                           : 25,000 кадров/сек
Стандарт вещания                         : Component
Цветовое пространство                    : YUV
Субдискретизация насыщенности            : 4:2:0
Битовая глубина                          : 8 бит
Тип развёртки                            : Чересстрочная
Порядок развёртки                        : Верхнее поле первое
Бит/(Пиксели*Кадры)                      : 0.199
Размер потока                            : 6,91 Гбайт (93%)
Цветовой диапазон                        : Limited
Основные цвета                           : BT.709
Характеристики трансфера                 : BT.709
Коэффициенты матрицы                     : BT.709

Аудио
Идентификатор                            : 307 (0x133)
Идентификатор меню                       : 2207 (0x89F)
Формат                                   : MPEG Audio
Версия формата                           : Version 1
Профиль формата                          : Layer 2
Идентификатор кодека                     : 3
Продолжительность                        : 1 ч. 36 м.
Вид битрейта                             : Постоянный
Битрейт                                  : 192 Кбит/сек
Каналы                                   : 2 канала
Частота                                  : 48,0 КГц
Метод сжатия                             : С потерями
Задержка видео                           : -80 мс.
Размер потока                            : 132 Мбайт (2%)
Язык                                     : Russian
 
Скриншоты:



Все одноименные релизы в Клубе

Смотреть Online

http://moonwalk.cc/video/dcd829ef9b8bbda3/iframe
Детали торрента:
Название:Танцы (2017.12.16) HDTV [H.264/1080i] (сезон 4, выпуск 20)
Дата добавления:17 Дек 2017 11:11:09
Размер:7,41 GB
Раздают:6
Качают:0
Форум:Телешоу

All rights reserved © 2015-2018