TORRENTS43.COM

Скачать Джихад / Khartoum (1966) BDRip [H.264]


Джихад / Khartoum (1966) BDRip [H.264]
Производство: Великобритания / Julian Blaustein Productions Ltd.
Жанр: Боевик, Военный, Драма, Приключения

Режиссер: Бэзил Дирден, Элиот Элисофон
Продюсер: Джулиан Блаустин
Актеры: Чарлтон Хестон, Лоуренс Оливье, Ричард Джонсон, Ральф Ричардсон, Александр Нокс, Джонни Секка, Майкл Хордерн, Зия Мухеддин, Марн Мэйтленд, Найджел Грин

Описание:
Масштабное столкновение между английским генералом Чарльзом Гордоном и объявившим чуждым пришельцам-захватчикам священную войну «джихад» мусульманским лидером Махди, одно имя которого говорит о непокорности и мистических тайнах.


Возраст: 12+ (зрителям, достигшим 12 лет)
Рейтинг MPAA: этот продукт не был классифицирован

Релиз от: RG NNM Club Video

Продолжительность: 02:16:11
Качество видео: BDRip
Перевод: Многоголосый х3, Авторский
Субтитры: Русские, Английские

Видео: AVC/H.264, 720x264, ~1575 kbps, 23,976 fps
Аудио #01: AC3, 2 ch, 192 kbps (Русский - Многоголосый)
Аудио #02: AC3, 2 ch, 192 kbps (Русский - Многоголосый ''НТВ+'')
Аудио #03: AC3, 2 ch, 192 kbps (Русский - Многоголосый ''Пятый канал'')
Аудио #04: AC3, 2 ch, 192 kbps (Русский - Авторский ''Сергей Визгунов'') - Отдельно
Аудио #05: AC3, 2 ch, 192 kbps (Английский) - Отдельно

Трейлер

YouTube

x.264 log


-[Information] [19.12.2017 21:48:30] x264 [info]: frame I:1351 Avg QP:14.89 size: 51417
-[Information] [19.12.2017 21:48:30] x264 [info]: frame P:38626 Avg QP:18.03 size: 17182
-[Information] [19.12.2017 21:48:30] x264 [info]: frame B:155922 Avg QP:18.08 size: 5615

Mediainfo:


Общее
Полное имя : Khartoum.1966.nnm_video\04.ac3
Формат : AC-3
Формат/Информация : Audio Coding 3
Размер файла : 187 Мбайт
Продолжительность : 2 ч. 16 м.
Режим общего битрейта : Постоянный
Общий поток : 192 Кбит/сек

Аудио
Формат : AC-3
Формат/Информация : Audio Coding 3
Продолжительность : 2 ч. 16 м.
Вид битрейта : Постоянный
Битрейт : 192 Кбит/сек
Каналы : 2 канала
Расположение каналов : Front: L R
Частота : 48,0 КГц
Частота кадров : 31,250 кадров/сек (1536 SPF)
Битовая глубина : 16 бит
Метод сжатия : С потерями
Размер потока : 187 Мбайт (100%)
ServiceKind/String : Complete Main

Общее
Полное имя : Khartoum.1966.nnm_video\05.ac3
Формат : AC-3
Формат/Информация : Audio Coding 3
Размер файла : 187 Мбайт
Продолжительность : 2 ч. 16 м.
Режим общего битрейта : Постоянный
Общий поток : 192 Кбит/сек

Аудио
Формат : AC-3
Формат/Информация : Audio Coding 3
Продолжительность : 2 ч. 16 м.
Вид битрейта : Постоянный
Битрейт : 192 Кбит/сек
Каналы : 2 канала
Расположение каналов : Front: L R
Частота : 48,0 КГц
Частота кадров : 31,250 кадров/сек (1536 SPF)
Битовая глубина : 16 бит
Метод сжатия : С потерями
Размер потока : 187 Мбайт (100%)
ServiceKind/String : Complete Main

Общее
Уникальный идентификатор : 96508136959325111481092352641779948949 (0x489ACA8486DE0910ACB6FAB68EA0DD95)
Полное имя : Khartoum.1966.nnm_video\Khartoum.1966.nnm_video.mkv
Формат : Matroska
Версия формата : Version 2
Размер файла : 2,05 Гбайт
Продолжительность : 2 ч. 16 м.
Общий поток : 2153 Кбит/сек
Название фильма : Джихад (Khartoum) RG NNM Club Video
Дата кодирования : UTC 2017-12-21 20:37:41
Программа кодирования : mkvmerge v19.0.0 ('Brave Captain') 64-bit
Библиотека кодирования : libebml v1.3.5 + libmatroska v1.4.8
Attachments : Лог кодирования.log

Видео
Идентификатор : 1
Формат : AVC
Формат/Информация : Advanced Video Codec
Профиль формата : High@L4.1
Настройки формата : CABAC / 12 Ref Frames
Параметр CABAC формата : Да
Параметр RefFrames формата : 12 кадров
Идентификатор кодека : V_MPEG4/ISO/AVC
Продолжительность : 2 ч. 16 м.
Битрейт : 1575 Кбит/сек
Ширина : 720 пикселей
Высота : 264 пикселя
Соотношение сторон : 2,727
Режим частоты кадров : Постоянный
Частота кадров : 23,976 (24000/1001) кадра/сек
Цветовое пространство : YUV
Субдискретизация насыщенности : 4:2:0
Битовая глубина : 8 бит
Тип развёртки : Прогрессивная
Бит/(Пиксели*Кадры) : 0.346
Размер потока : 1,46 Гбайт (71%)
Заголовок : Джихад (Khartoum)
Библиотека кодирования : x264 core 152 r2851 ba24899
Настройки программы : cabac=1 / ref=12 / deblock=1:-1:-1 / analyse=0x3:0x133 / me=umh / subme=11 / psy=1 / psy_rd=1.00:0.15 / mixed_ref=1 / me_range=64 / chroma_me=1 / trellis=2 / 8x8dct=1 / cqm=0 / deadzone=21,11 / fast_pskip=0 / chroma_qp_offset=-3 / threads=6 / lookahead_threads=1 / sliced_threads=0 / nr=0 / decimate=0 / interlaced=0 / bluray_compat=0 / constrained_intra=0 / bframes=16 / b_pyramid=2 / b_adapt=2 / b_bias=0 / direct=3 / weightb=1 / open_gop=0 / weightp=2 / keyint=240 / keyint_min=23 / scenecut=40 / intra_refresh=0 / rc_lookahead=60 / rc=2pass / mbtree=0 / bitrate=1575 / ratetol=1.0 / qcomp=0.60 / qpmin=0 / qpmax=69 / qpstep=4 / cplxblur=20.0 / qblur=0.5 / vbv_maxrate=50000 / vbv_bufsize=62500 / nal_hrd=none / filler=0 / ip_ratio=1.40 / pb_ratio=1.30 / aq=1:1.00
Язык : English
Default : Да
Forced : Нет

Аудио #1
Идентификатор : 2
Формат : AC-3
Формат/Информация : Audio Coding 3
Идентификатор кодека : A_AC3
Продолжительность : 2 ч. 16 м.
Вид битрейта : Постоянный
Битрейт : 192 Кбит/сек
Каналы : 2 канала
Расположение каналов : Front: L R
Частота : 48,0 КГц
Частота кадров : 31,250 кадров/сек (1536 SPF)
Битовая глубина : 16 бит
Метод сжатия : С потерями
Размер потока : 187 Мбайт (9%)
Заголовок : Многоголосый ''Неизвестен'' (AC-3, Постоянный, 192 Кбит/сек, 2 канала, 48,0 КГц, 16 бит)
Язык : Russian
ServiceKind/String : Complete Main
Default : Да
Forced : Нет

Аудио #2
Идентификатор : 3
Формат : AC-3
Формат/Информация : Audio Coding 3
Идентификатор кодека : A_AC3
Продолжительность : 2 ч. 16 м.
Вид битрейта : Постоянный
Битрейт : 192 Кбит/сек
Каналы : 2 канала
Расположение каналов : Front: L R
Частота : 48,0 КГц
Частота кадров : 31,250 кадров/сек (1536 SPF)
Битовая глубина : 16 бит
Метод сжатия : С потерями
Размер потока : 187 Мбайт (9%)
Заголовок : Многоголосый ''НТВ+'' (AC-3, Постоянный, 192 Кбит/сек, 2 канала, 48,0 КГц, 16 бит)
Язык : Russian
ServiceKind/String : Complete Main
Default : Нет
Forced : Нет

Аудио #3
Идентификатор : 4
Формат : AC-3
Формат/Информация : Audio Coding 3
Идентификатор кодека : A_AC3
Продолжительность : 2 ч. 16 м.
Вид битрейта : Постоянный
Битрейт : 192 Кбит/сек
Каналы : 2 канала
Расположение каналов : Front: L R
Частота : 48,0 КГц
Частота кадров : 31,250 кадров/сек (1536 SPF)
Битовая глубина : 16 бит
Метод сжатия : С потерями
Размер потока : 187 Мбайт (9%)
Заголовок : Многоголосый ''Пятый канал'' (AC-3, Постоянный, 192 Кбит/сек, 2 канала, 48,0 КГц, 16 бит)
Язык : Russian
ServiceKind/String : Complete Main
Default : Нет
Forced : Нет

Текст #1
Идентификатор : 5
Формат : UTF-8
Идентификатор кодека : S_TEXT/UTF8
Идентификатор кодека/Информация : UTF-8 Plain Text
Заголовок : Русские
Язык : Russian
Default : Нет
Forced : Нет

Текст #2
Идентификатор : 6
Формат : UTF-8
Идентификатор кодека : S_TEXT/UTF8
Идентификатор кодека/Информация : UTF-8 Plain Text
Заголовок : Английские
Язык : English
Default : Нет
Forced : Нет

Меню
00:00:00.000 : en:00:00:00.000
00:06:17.294 : en:00:06:17.294
00:17:29.215 : en:00:17:29.215
00:27:55.507 : en:00:27:55.507
00:38:10.622 : en:00:38:10.622
00:50:35.699 : en:00:50:35.699
01:04:44.214 : en:01:04:44.214
01:21:28.217 : en:01:21:28.217
01:37:26.966 : en:01:37:26.966
01:50:30.165 : en:01:50:30.165
02:05:31.941 : en:02:05:31.941
02:13:54.568 : en:02:13:54.568
Скриншоты:


Все одноименные релизы в Клубе
Детали торрента:
Название:Джихад / Khartoum (1966) BDRip [H.264]
Дата добавления:22 Дек 2017 01:29:03
Размер:2,41 GB
Раздают:2
Качают:1
Форум:Зарубежная Классика (HD*Rip/LQ, DVDRip, SATRip, VHSRip)

All rights reserved © 2015-2018