TORRENTS43.COM

Скачать Андрей Миронов - Неизвестный Миронов (2005) [APE|Lossless|image + .cue] <Советская эстрада, Ретро>


Андрей Миронов - Неизвестный Миронов (2005)
Жанр: Советская эстрада, Ретро
Издание: АРК-Систем Рекордз - ARK CD 022
Продолжительность: 01:04:45

Кодек: APE
Битрейт: Lossless
Тип рипа: image + .cue

Треклист:
01. Это было недавно (В.Баснер - М.Матусовский)
02. Апельсины (П.Аедоницкий - Ф.Лаубе)
03. Джон Грей (М.Блантер - В.Масс)
04. А может быть (Я.Френкель - М.Долматовский)
05. Старая фотография (В.Махлянкин - Б.Салибов)
06. Чудо-машина (А.Кальварский - О.Чупров)
07. Баллада о рыцарях (А.Кальварский - Э.Нахамис,Н.Денисов)
08. Щенок (М.Юрин - Д.Муравьёв)
09. Некогда (Н.Андреев - Ю.Михайлов)
10. Недалеко от Москвы (Я.Френкель - Л.Давидович)
11. Городской мотив (Э.Колмановский - К.Ваншенкин)
12. Последний день лета (Н.Андреев - Ю.Ряшенцев)
13. Воскресная прогулка (Я.Френкель - Р.Рождественский)

Продолжение треклиста

14. Что говорить (В.Лебедев - Ю.Ряшенцев)
15. Радоваться мне бы (О.Иванов - Л.Ошанин)
16. Баллада о сказочных трубочистах (А.Кальварский - Э.Нахамис,Н.Денисов)
17. Таити-трот (В.Юманс - К.Подревский)
18. Не жалейте улыбки (М.Табачников - В.Масс)
19. Дальняя песенка (Я.Френкель - М.Лисянский)
20. Случай на прогулке (М.Юрин - Д.Муравьёв)
21. У дороги на краю (О.Иванов - Л.Ошанин)
22. Мама (М.Юрин - Д.Муравьёв)
23. Я дома (Я.Френкель - И.Шаферан)

Отчёт EAC:


Exact Audio Copy V0.99 prebeta 4 from 23. January 2008

Отчёт EAC об извлечении, выполненном 4. сентября 2008, 21:39

Андрей Миронов / Неизвестный Миронов

Дисковод: Optiarc DVD RW AD-5170A Adapter: 0 ID: 0

Режим чтения : Достоверность
Использование точного потока : Да
Отключение кэша аудио : Да
Использование указателей C2 : Нет

Коррекция смещения при чтении : 48
Способность читать области Lead-in и Lead-out : Нет
Заполнение пропущенных сэмплов тишиной : Да
Удаление блоков с тишиной в начале и конце : Нет
При вычислениях CRC использовались нулевые сэмплы : Да
Интерфейс : Встроенный Win32-интерфейс для Win NT/2000

Выходной формат : Внутренние WAV-операции
Формат сэмплов : 44.100 Гц; 16 бит; стерео

TOC извлечённого CD

Трек | Старт | Длительность | Начальный сектор | Конечный сектор
---------------------------------------------------------------------
1 | 0:00.00 | 2:27.17 | 0 | 11041
2 | 2:27.17 | 3:13.63 | 11042 | 25579
3 | 5:41.05 | 1:20.32 | 25580 | 31611
4 | 7:01.37 | 2:37.00 | 31612 | 43386
5 | 9:38.37 | 2:57.44 | 43387 | 56705
6 | 12:36.06 | 2:37.32 | 56706 | 68512
7 | 15:13.38 | 2:35.23 | 68513 | 80160
8 | 17:48.61 | 2:11.21 | 80161 | 90006
9 | 20:00.07 | 2:52.40 | 90007 | 102946
10 | 22:52.47 | 2:01.72 | 102947 | 112093
11 | 24:54.44 | 3:19.74 | 112094 | 127092
12 | 28:14.43 | 3:11.16 | 127093 | 141433
13 | 31:25.59 | 2:44.00 | 141434 | 153733
14 | 34:09.59 | 3:10.24 | 153734 | 168007
15 | 37:20.08 | 3:01.36 | 168008 | 181618
16 | 40:21.44 | 2:51.47 | 181619 | 194490
17 | 43:13.16 | 1:36.30 | 194491 | 201720
18 | 44:49.46 | 2:24.65 | 201721 | 212585
19 | 47:14.36 | 3:10.19 | 212586 | 226854
20 | 50:24.55 | 3:02.42 | 226855 | 240546
21 | 53:27.22 | 2:28.06 | 240547 | 251652
22 | 55:55.28 | 5:40.26 | 251653 | 277178
23 | 61:35.54 | 3:08.02 | 277179 | 291280

Характеристики диапазона извлечения и сообщения об ошибках

Выбранный диапазон

Имя файла D:\Audio\А.Миронов\Андрей Миронов - Неизвестный Миронов.wav

Пиковый уровень 100.0 %
Качество диапазона 99.9 %
CRC копии 68DFC828
Копирование... OK

Ошибок не произошло

Конец отчёта

Cue Sheet (.cue):


REM GENRE Chanson
REM DATE 2005
REM DISCID 4D0F2B17
REM COMMENT "ExactAudioCopy v0.99pb4"
PERFORMER "Андрей Миронов"
TITLE "Неизвестный Миронов"
FILE "Андрей Миронов - Неизвестный Миронов.wav" WAVE
TRACK 01 AUDIO
TITLE "Это было недавно"
PERFORMER "Андрей Миронов"
FLAGS DCP
INDEX 01 00:00:00
TRACK 02 AUDIO
TITLE "Апельсины"
PERFORMER "Андрей Миронов"
FLAGS DCP
INDEX 01 02:27:17
TRACK 03 AUDIO
TITLE "Джон Грей "
PERFORMER "Андрей Миронов"
FLAGS DCP
INDEX 01 05:41:05
TRACK 04 AUDIO
TITLE "А может быть"
PERFORMER "Андрей Миронов"
FLAGS DCP
INDEX 01 07:01:37
TRACK 05 AUDIO
TITLE "Старая фотография"
PERFORMER "Андрей Миронов"
FLAGS DCP
INDEX 01 09:38:37
TRACK 06 AUDIO
TITLE "Чудо-машина"
PERFORMER "Андрей Миронов"
FLAGS DCP
INDEX 01 12:36:06
TRACK 07 AUDIO
TITLE "Баллада о рыцарях"
PERFORMER "Андрей Миронов"
FLAGS DCP
INDEX 01 15:13:38
TRACK 08 AUDIO
TITLE "Щенок"
PERFORMER "Андрей Миронов"
FLAGS DCP
INDEX 01 17:48:61
TRACK 09 AUDIO
TITLE "Некогда"
PERFORMER "Андрей Миронов"
FLAGS DCP
INDEX 01 20:00:07
TRACK 10 AUDIO
TITLE "Недалеко от Москвы"
PERFORMER "Андрей Миронов"
FLAGS DCP
INDEX 00 22:52:46
INDEX 01 22:52:47
TRACK 11 AUDIO
TITLE "Городской мотив"
PERFORMER "Андрей Миронов"
FLAGS DCP
INDEX 01 24:54:44
TRACK 12 AUDIO
TITLE "Последний день лета"
PERFORMER "Андрей Миронов"
FLAGS DCP
INDEX 01 28:14:43
TRACK 13 AUDIO
TITLE "Воскресная прогулка"
PERFORMER "Андрей Миронов"
FLAGS DCP
INDEX 01 31:25:59
TRACK 14 AUDIO
TITLE "Что говорить"
PERFORMER "Андрей Миронов"
FLAGS DCP
INDEX 01 34:09:59
TRACK 15 AUDIO
TITLE "Радоваться мне бы"
PERFORMER "Андрей Миронов"
FLAGS DCP
INDEX 01 37:20:08
TRACK 16 AUDIO
TITLE "Баллада о сказочных трубочистах"
PERFORMER "Андрей Миронов"
FLAGS DCP
INDEX 01 40:21:44
TRACK 17 AUDIO
TITLE "Таити-трот"
PERFORMER "Андрей Миронов"
FLAGS DCP
INDEX 01 43:13:16
TRACK 18 AUDIO
TITLE "Не жалейте улыбки"
PERFORMER "Андрей Миронов"
FLAGS DCP
INDEX 01 44:49:46
TRACK 19 AUDIO
TITLE "Дальняя песенка"
PERFORMER "Андрей Миронов"
FLAGS DCP
INDEX 01 47:14:36
TRACK 20 AUDIO
TITLE "Случай на прогулке"
PERFORMER "Андрей Миронов"
FLAGS DCP
INDEX 01 50:24:55
TRACK 21 AUDIO
TITLE "У дороги на краю"
PERFORMER "Андрей Миронов"
FLAGS DCP
INDEX 01 53:27:22
TRACK 22 AUDIO
TITLE "Мама"
PERFORMER "Андрей Миронов"
FLAGS DCP
INDEX 01 55:55:28
TRACK 23 AUDIO
TITLE "Я дома"
PERFORMER "Андрей Миронов"
FLAGS DCP
INDEX 01 61:35:54

Отчёт auCDtect Task manager:


-----------------------

DON'T MODIFY THIS FILE

-----------------------

PERFORMER: auCDtect Task Manager, ver. 1.6.0 RC1 build 1.6.0.1
Copyright (c) 2008-2010 y-soft. All rights reserved
http://y-soft.org

ANALYZER: auCDtect: CD records authenticity detector, version 0.8.2
Copyright (c) 2004 Oleg Berngardt. All rights reserved.
Copyright (c) 2004 Alexander Djourik. All rights reserved.

FILE: Андрей Миронов - Неизвестный Миронов.ape
Size: 320802460 Hash: 4FF9E34961072573629C7808FB362506 Accuracy: -m0
Conclusion: CDDA 58%
Signature: 567E14B58D967253F2E1EE8CFDDEE5BD66C6F179



Поглощение/вытеснение
Только с согласия релизера

Pashketan
Детали торрента:
Название:Андрей Миронов - Неизвестный Миронов (2005) [APE|Lossless|image + .cue] <Советская эстрада, Ретро>
Дата добавления:30 Дек 2017 17:49:36
Размер:314 MB
Раздают:8
Качают:0
Форум:Советская эстрада, Ретро (Lossless)

All rights reserved © 2015-2018