TORRENTS43.COM

Скачать С Новым годом! / La bonne annee (1973) HDRip [H.264]


С Новым годом! / La bonne année (1973) HDRip [H.264]
Производство: Франция, Италия. Les Films 13, Rizzoli Film S.p.a.
Жанр: Комедия, Криминал

Режиссер: Клод Лелуш
Актеры: Лино Вентура, Франсуаза Фабиан, Шарль Жерар, Андре Фалькон, Мирей Матье, Фредерик де Паскуаль, Жерар Сир

Описание:
Преступника, ограбившего ювелирный магазин, освобождают под Новый год, а полиция надеется, что он выведет на сообщника, у которого припрятаны ювелирные изделия.
История любви бандита и прелестной хозяйки антикварного магазина и история ограбления идут, как бы независимо.


Возраст: 16+ (зрителям, достигшим 16 лет)
Рейтинг MPAA: PG (рекомендуется присутствие родителей)

Продолжительность: 01:54:35
Качество видео: HDRip
Перевод: Многоголосый закадровый
Субтитры: Русские, английские

Видео: AVC/H.264, 720x544, ~1550 Kbps
Аудио 1: AC3, 48 KHz, 2 ch, 192 kbps | Русский - MVO
Аудио 2: AC3, 48 KHz, 2 ch, 320 kbps | Французский - Оригинал

Mediainfo:


Общее
Уникальный идентификатор : 185886735514560051771416258800786563164 (0x8BD87BA725406D7B864A937CBF8F605C)
Полное имя : I:\Лино Вентура\С Новым годом 1973\С Новым годом. 1973.mkv
Формат : Matroska
Версия формата : Version 4 / Version 2
Размер файла : 1,65 Гбайт
Продолжительность : 1 ч. 54 м.
Общий поток : 2064 Кбит/сек
Название фильма : Release for Topmost
Дата кодирования : UTC 2018-01-08 18:35:39
Программа кодирования : mkvmerge v6.2.0 ('Promised Land') built on Apr 28 2013 12:22:01
Библиотека кодирования : libebml v1.3.0 + libmatroska v1.4.0
Attachment : Yes

Видео
Идентификатор : 1
Формат : AVC
Формат/Информация : Advanced Video Codec
Профиль формата : High@L4.1
Параметр CABAC формата : Да
Параметр ReFrames формата : 12 кадров
Идентификатор кодека : V_MPEG4/ISO/AVC
Продолжительность : 1 ч. 54 м.
Битрейт : 1550 Кбит/сек
Ширина : 720 пикселей
Высота : 544 пикселя
Соотношение сторон : 4:3
Режим частоты кадров : Постоянный
Частота кадров : 24,000 кадра/сек
Цветовое пространство : YUV
Субдискретизация насыщенности : 4:2:0
Битовая глубина : 8 бит
Тип развёртки : Прогрессивная
Бит/(Пиксели*Кадры) : 0.165
Размер потока : 1,21 Гбайт (73%)
Заголовок : С Новым годом!.1973 (Release for Topmost)
Библиотека кодирования : x264 core 146 r2538 121396c
Настройки программы : cabac=1 / ref=12 / deblock=1:-3:-3 / analyse=0x3:0x113 / me=umh / subme=11 / psy=1 / psy_rd=1.00:0.15 / mixed_ref=1 / me_range=32 / chroma_me=1 / trellis=2 / 8x8dct=1 / cqm=0 / deadzone=21,11 / fast_pskip=0 / chroma_qp_offset=-3 / threads=12 / lookahead_threads=2 / sliced_threads=0 / nr=0 / decimate=0 / interlaced=0 / bluray_compat=0 / constrained_intra=0 / bframes=8 / b_pyramid=2 / b_adapt=2 / b_bias=0 / direct=3 / weightb=1 / open_gop=0 / weightp=2 / keyint=240 / keyint_min=23 / scenecut=40 / intra_refresh=0 / rc_lookahead=40 / rc=2pass / mbtree=1 / bitrate=1550 / ratetol=1.0 / qcomp=0.60 / qpmin=0 / qpmax=69 / qpstep=4 / cplxblur=20.0 / qblur=0.5 / ip_ratio=1.40 / aq=1:0.90
Язык : French
Default : Да
Forced : Нет

Аудио #1
Идентификатор : 2
Формат : AC-3
Формат/Информация : Audio Coding 3
Расширение режима : CM (complete main)
Параметр Endianness формата : Big
Идентификатор кодека : A_AC3
Продолжительность : 1 ч. 54 м.
Вид битрейта : Постоянный
Битрейт : 192 Кбит/сек
Каналы : 2 канала
Расположение каналов : Front: L R
Частота : 48,0 КГц
Битовая глубина : 16 бит
Метод сжатия : С потерями
Размер потока : 157 Мбайт (9%)
Заголовок : AC3, 2 ch, 192 kbps - MVO
Язык : Russian
Default : Да
Forced : Нет

Аудио #2
Идентификатор : 3
Формат : AC-3
Формат/Информация : Audio Coding 3
Расширение режима : CM (complete main)
Параметр Endianness формата : Big
Идентификатор кодека : A_AC3
Продолжительность : 1 ч. 54 м.
Вид битрейта : Постоянный
Битрейт : 320 Кбит/сек
Каналы : 2 канала
Расположение каналов : Front: L R
Частота : 48,0 КГц
Битовая глубина : 16 бит
Метод сжатия : С потерями
Размер потока : 262 Мбайт (16%)
Заголовок : AC3, 2 ch, 320 kbps - Original
Язык : French
Default : Нет
Forced : Нет

Текст #1
Идентификатор : 4
Формат : UTF-8
Идентификатор кодека : S_TEXT/UTF8
Идентификатор кодека/Информация : UTF-8 Plain Text
Заголовок : русские
Язык : Russian
Default : Нет
Forced : Нет

Текст #2
Идентификатор : 5
Формат : UTF-8
Идентификатор кодека : S_TEXT/UTF8
Идентификатор кодека/Информация : UTF-8 Plain Text
Заголовок : английские
Default : Нет
Forced : Нет
Скриншоты:

Дополнительные скриншоты:



Все одноименные релизы в Клубе
Детали торрента:
Название:С Новым годом! / La bonne annee (1973) HDRip [H.264]
Дата добавления:09 Янв 2018 08:29:50
Размер:1,65 GB
Раздают:6
Качают:0
Форум:Зарубежная Классика (HD*Rip/LQ, DVDRip, SATRip, VHSRip)

All rights reserved © 2015-2018